<?xml version="1.0" standalone="no"?>
<!DOCTYPE svg PUBLIC "-//W3C//DTD SVG 1.1//EN" "http://www.w3.org/Graphics/SVG/1.1/DTD/svg11.dtd" >
<svg xmlns="http://www.w3.org/2000/svg">
<metadata>Generated by IcoMoon</metadata>
<defs>
<font id="icomoon" horiz-adv-x="1024">
<font-face units-per-em="1024" ascent="960" descent="-64" />
<missing-glyph horiz-adv-x="1024" />
<glyph unicode="&#x20;" horiz-adv-x="512" d="" />
<glyph unicode="&#xe900;" glyph-name="deal-purchase" d="M789.217 28.017h-554.496c-60.027 0-108.687 38.543-108.687 86.18l41.574 501.432c0 47.636 9.093 86.016 9.093 86.303h553.452c60.109 0 112.312-0.287 112.312-0.287l55.419-587.448c0.061-47.636-48.64-86.18-108.667-86.18v0zM790.753 649.851h-458.732c-51.384 0-103.526 0-103.526 0l-54.415-502.272c0-42.844 48.742-70.492 100.25-70.492h475.3c51.364 0 100.086 12.042 100.086 54.927l-58.962 517.837zM642.56 615.322v120.873c0 66.683-49.664 120.852-111.022 120.852h-36.925c-61.338 0-111.002-54.17-111.002-120.852v-120.873c0-5.919 0.86-11.571 1.618-17.224h-53.35v155.3c0 85.832 69.55 155.382 155.259 155.382h51.896c85.709 0 155.279-69.55 155.279-155.382v-155.3h-53.371c0.758 5.632 1.618 11.305 1.618 17.224v0z" />
<glyph unicode="&#xe901;" glyph-name="search" d="M720.339 189.034l242.552-242.552c6.9-6.9 16.1-10.455 25.301-10.455s18.401 3.555 25.301 10.455c14.009 14.009 14.009 36.801 0 50.811l-242.552 242.552c64.82 76.32 103.921 175.014 103.921 282.699 0 241.298-196.342 437.431-437.431 437.431s-437.431-196.135-437.431-437.435 196.342-437.431 437.64-437.431c107.685 0.002 206.379 39.105 282.699 103.925zM71.72 522.54c0 201.779 164.141 365.711 365.711 365.711s365.711-164.141 365.711-365.711-164.141-365.711-365.711-365.711-365.711 164.145-365.711 365.711z" />
<glyph unicode="&#xe902;" glyph-name="smartphone" d="M552.001 188.297c0-22.090-17.907-39.997-39.997-39.997s-39.997 17.907-39.997 39.997c0 22.090 17.907 39.997 39.997 39.997s39.997-17.907 39.997-39.997zM623.585 727.047h-223.171c-12.51 0-22.688-9.704-22.688-21.61v-421.861c0-11.916 10.172-21.61 22.688-21.61h223.171c12.51 0 22.688 9.704 22.688 21.61v421.861c-0.007 11.916-10.179 21.61-22.688 21.61zM511.986 960c-282.757 0-511.983-229.243-511.983-511.99s229.226-512.010 511.983-512.010 512.010 229.25 512.010 512.010-229.253 511.99-512.010 511.99zM711.182 195.342c0-39.11-31.71-70.823-70.823-70.823h-256.73c-39.11 0-70.823 31.71-70.823 70.823v507.556c0 39.11 31.71 70.823 70.823 70.823h256.73c39.11 0 70.823-31.71 70.823-70.823v-507.556z" />
<glyph unicode="&#xe903;" d="M0-64l88.064 264.174c-44.685 75.158-70.409 162.869-70.409 256.653 0 277.892 225.28 503.172 503.172 503.172s503.172-225.28 503.172-503.172-225.28-503.172-503.172-503.172c-84.551 0-164.175 20.957-234.108 57.785l-286.72-75.441z" />
<glyph unicode="&#xe904;" glyph-name="menu" d="M38.642 699.17h946.717c21.33 0 38.642 17.311 38.642 38.642s-17.311 38.642-38.642 38.642h-946.717c-21.33 0-38.642-17.311-38.642-38.642s17.311-38.642 38.642-38.642zM38.642 409.358h946.717c21.33 0 38.642 17.311 38.642 38.642s-17.311 38.642-38.642 38.642h-946.717c-21.33 0-38.642-17.311-38.642-38.642s17.311-38.642 38.642-38.642zM38.642 119.547h946.717c21.33 0 38.642 17.311 38.642 38.642s-17.311 38.642-38.642 38.642h-946.717c-21.33 0-38.642-17.311-38.642-38.642s17.311-38.642 38.642-38.642z" />
<glyph unicode="&#xe905;" d="M841.852 289.368c-23.234 43.908-108.915 94.12-108.915 94.12-19.385 11.052-42.778 12.288-53.831-7.415 0 0-27.842-33.386-34.922-38.188-32.344-21.91-62.305-21.063-92.548 9.181l-140.57 140.57c-30.243 30.243-31.091 60.204-9.181 92.548 4.802 7.080 38.188 34.922 38.188 34.922 19.703 11.070 18.467 34.445 7.415 53.831 0 0-50.211 85.681-94.12 108.915-18.679 9.887-41.613 6.426-56.55-8.51l-31.038-31.038c-98.463-98.463-49.982-209.62 48.481-308.083l179.977-179.977c98.463-98.463 209.62-146.944 308.083-48.481l31.038 31.038c14.936 14.972 18.379 37.906 8.492 56.567z" />
<glyph unicode="&#xe906;" glyph-name="user" d="M510.319 388.308c151.331 0 274.075 122.746 274.075 274.075s-122.746 273.236-274.075 273.236-274.075-122.746-274.075-273.236 122.744-274.075 274.075-274.075zM510.319 864.157c110.975 0 201.774-90.797 201.774-201.774s-90.799-201.772-201.774-201.772-201.774 90.797-201.774 201.774 90.797 201.772 201.774 201.772zM36.151-39.619h951.699c20.177 0 36.151 15.973 36.151 36.151 0 189.163-153.852 343.856-343.856 343.856h-336.288c-189.163 0-343.856-153.852-343.856-343.856 0-20.177 15.973-36.151 36.151-36.151zM343.856 268.086h336.288c137.878 0 251.376-102.569 269.032-235.402h-874.352c17.655 131.992 131.154 235.402 269.032 235.402z" />
<glyph unicode="&#xe907;" glyph-name="phone-call" d="M822.996-64c-42.605 0-94.062 10.677-150.65 32.031-124.061 46.772-259.040 139.215-380.069 260.245-121.064 121.064-213.507 256.077-260.314 380.138-42.536 112.798-42.639 205.379-0.241 247.742 6.096 6.096 12.296 12.64 18.702 19.391 38.679 40.676 82.386 86.45 140.317 84.383 39.918-1.653 78.597-26.452 118.206-75.738 117.034-145.553 64.269-197.422 3.203-257.559l-10.78-10.677c-9.988-9.988-28.863-56.244 146.724-231.83 57.312-57.312 106.185-99.262 145.243-124.646 24.592-15.981 68.574-40.16 86.622-22.112l10.849 10.953c60.067 60.928 111.937 113.521 257.386-3.41 49.287-39.608 74.051-78.253 75.704-118.24 2.377-57.897-43.742-101.708-84.452-140.352-6.716-6.406-13.26-12.606-19.356-18.668-21.044-21.079-54.694-31.652-97.092-31.652zM186.608 925.558c-41.158 0-78.321-39.126-111.214-73.741-6.613-6.957-13.019-13.708-19.322-20.011-31.583-31.549-28.38-114.451 8.128-211.268 45.119-119.583 134.772-250.257 252.461-367.946 117.654-117.62 248.259-207.273 367.877-252.358 96.817-36.578 179.719-39.677 211.234-8.163 6.303 6.303 13.054 12.709 20.011 19.288 35.372 33.616 75.497 71.709 73.741 113.969-1.205 29.035-22.353 60.274-62.857 92.822-121.202 97.471-155.093 63.064-211.303 6.062l-11.021-11.125c-26.865-26.899-70.503-20.941-129.744 17.566-41.090 26.727-91.857 70.193-150.822 129.193-145.725 145.69-192.325 234.861-146.724 280.566l10.987 10.849c57.14 56.21 91.616 90.135-5.89 211.406-32.617 40.47-63.821 61.617-92.856 62.857-0.895 0.034-1.791 0.034-2.686 0.034z" />
<glyph unicode="&#xe908;" glyph-name="chat" d="M978.863 685.747h-231.89v-299.204c0-43.566-35.448-79.014-79.014-79.014h-357.066v-100.187c0-24.921 20.203-45.135 45.135-45.135h350.8l146.586-122.435c19.129-15.979 29.416-9.407 22.98 14.667l-28.639 107.042c-0.066 0.249-0.201 0.476-0.269 0.725h131.376c24.923 0 45.137 20.203 45.137 45.135v433.281c-0.011 24.921-20.212 45.124-45.135 45.124zM45.135 341.419h68.998c-0.068-0.249-0.203-0.476-0.271-0.725l-28.639-107.042c-4.065-15.177-1.467-23.397 5.783-23.397 4.257 0 10.117 2.821 17.186 8.728l146.588 122.435h413.193c24.923 0 45.135 20.199 45.135 45.135v433.27c0 24.923-20.201 45.135-45.135 45.135h-622.838c-24.921 0-45.135-20.203-45.135-45.135v-433.268c0-24.936 20.203-45.135 45.135-45.135z" />
<glyph unicode="&#xe909;" glyph-name="facebook2" d="M1024 448c0 282.765-229.237 512-512 512-282.765 0-512-229.235-512-512 0-282.763 229.235-512 512-512 282.763 0 512 229.237 512 512zM46.545 448c0 257.071 208.384 465.455 465.455 465.455s465.455-208.384 465.455-465.455-208.384-465.455-465.455-465.455-465.455 208.384-465.455 465.455zM531.642 152.484v295.516h97.513l15.407 97.931h-112.919v49.105c0 25.553 8.378 49.943 45.056 49.943h73.308v97.745h-104.075c-87.505 0-111.383-57.622-111.383-137.495v-59.253h-60.043v-97.976h60.043v-295.516h97.094z" />
<glyph unicode="&#xe90a;" glyph-name="tick" d="M325.818 221.091l-244.364 244.364-81.455-81.455 325.818-325.818 698.182 698.182-81.455 81.455z" />
<glyph unicode="&#xe90b;" glyph-name="plus" d="M1024 374.857h-438.857v-438.857h-146.286v438.857h-438.857v146.286h438.857v438.857h146.286v-438.857h438.857v-146.286z" />
<glyph unicode="&#xe90c;" glyph-name="minus" d="M999.325 513.807h-974.651c-13.62 0-24.675-11.054-24.675-24.675v-82.265c0-13.62 11.054-24.675 24.675-24.675h974.651c13.62 0 24.675 11.054 24.675 24.675v82.265c0 13.62-11.054 24.675-24.675 24.675z" />
<glyph unicode="&#xe90d;" glyph-name="instagram" d="M512 960c-282.318 0-512-229.682-512-512s229.682-512 512-512 512 229.682 512 512-229.682 512-512 512zM512-5.421c-250.015 0-453.421 203.406-453.421 453.421s203.406 453.421 453.421 453.421 453.421-203.406 453.421-453.421-203.406-453.421-453.421-453.421zM698.45 698.588h-372.901c-34.096 0-61.833-27.737-61.833-61.833v-377.509c0-34.096 27.737-61.833 61.833-61.833h372.901c34.096 0 61.833 27.737 61.833 61.833v377.509c0 34.093-27.737 61.833-61.833 61.833zM701.705 259.245c0-1.796-1.458-3.254-3.254-3.254h-372.901c-1.796 0-3.254 1.458-3.254 3.254v377.509c0 1.796 1.458 3.254 3.254 3.254h372.901c1.796 0 3.254-1.458 3.254-3.254v-377.509zM597.45 596.12h67.089v-61.544h-67.089v61.544zM578.142 423.202c0-36.529-29.613-66.142-66.142-66.142s-66.142 29.613-66.142 66.142c0 36.529 29.613 66.142 66.142 66.142s66.142-29.613 66.142-66.142zM617.504 423.494c0-58.267-47.234-105.501-105.501-105.501s-105.501 47.234-105.501 105.501l0.143 47.010h-47.179v-174.959h305.076v174.959h-46.795l-0.244-47.010z" />
<glyph unicode="&#xe90e;" glyph-name="pinterest" d="M748.31 538.298c0 106.17-88.109 205.079-221.974 205.079-166.633 0-250.601-121.95-250.601-223.652 0-61.579 22.807-116.363 71.819-136.751 8.006-3.351 15.221-0.094 17.549 8.938 1.583 6.283 5.445 22.155 7.121 28.717 2.374 8.983 1.442 12.102-5.026 19.97-14.15 17.082-23.134 39.051-23.134 70.238 0 90.438 66.281 171.426 172.638 171.426 94.161 0 145.92-58.739 145.92-137.169 0-103.238-44.73-190.325-111.196-190.325-36.725 0-64.141 30.953-55.343 68.933 10.519 45.335 30.953 94.302 30.953 127.023 0 29.278-15.407 53.76-47.29 53.76-37.515 0-67.631-39.61-67.631-92.672 0-33.792 11.217-56.645 11.217-56.645s-38.4-166.029-45.103-195.072c-6.099-26.485-7.029-55.575-6.191-80.151 2.56-22.063 23.925-40.030 42.449-15.825 13.033 21.271 27.044 48.128 34.304 75.031 4.329 15.919 24.67 98.398 24.67 98.398 12.194-23.739 47.802-44.638 85.69-44.638 112.685 0.047 189.159 104.96 189.159 245.387zM1024 448c0 282.765-229.237 512-512 512-282.765 0-512-229.235-512-512 0-282.763 229.235-512 512-512 282.763 0 512 229.237 512 512zM46.545 448c0 257.071 208.384 465.455 465.455 465.455s465.455-208.384 465.455-465.455-208.384-465.455-465.455-465.455-465.455 208.384-465.455 465.455z" />
<glyph unicode="&#xe90f;" glyph-name="twitter" d="M731.556 549.794c0 5.167-0.094 10.287-0.326 15.36 22.11 16.478 41.286 37.097 56.461 60.695-20.294-9.124-42.078-15.221-64.979-17.779 23.366 14.383 41.286 37.376 49.758 64.977-21.877-13.265-46.080-22.761-71.821-27.695-20.619 23.46-50.035 38.4-82.573 38.959-62.464 1.024-113.105-51.759-113.105-117.899 0-9.402 0.977-18.526 2.931-27.322-94.067 6.050-177.43 55.017-233.193 128.837-9.728-17.687-15.313-38.353-15.313-60.51 0-41.892 19.968-79.127 50.315-101.097-18.571 0.837-35.979 6.469-51.245 15.686 0-0.512 0-1.024 0-1.536 0-58.555 39.006-107.614 90.763-119.063-9.495-2.699-19.503-4.096-29.79-4.051-7.307 0.047-14.383 0.838-21.271 2.329 14.383-47.989 56.181-83.038 105.658-84.201-38.726-32.115-87.505-51.292-140.474-51.153-9.124 0-18.153 0.604-26.997 1.722 50.084-34.351 109.521-54.364 173.427-54.364 208.014-0.049 321.774 181.014 321.774 338.104zM1024 448c0 282.765-229.237 512-512 512-282.765 0-512-229.235-512-512 0-282.763 229.235-512 512-512 282.763 0 512 229.237 512 512zM46.545 448c0 257.071 208.384 465.455 465.455 465.455s465.455-208.384 465.455-465.455-208.384-465.455-465.455-465.455-465.455 208.384-465.455 465.455z" />
<glyph unicode="&#xe910;" glyph-name="truck" d="M362.656 277.336c-11.782 0-21.312-9.532-21.312-21.312s9.532-21.344 21.312-21.344 21.344 9.562 21.344 21.344-9.562 21.312-21.344 21.312zM852.718 618.556l-127.438 0.11v85.328c0 23.562-19.094 42.672-42.656 42.672h-469.248c-23.562 0-42.656-19.11-42.656-42.672h-149.376c-11.782-0.002-21.344-9.548-21.344-21.33s9.562-21.328 21.344-21.328h149.376l-0.032-85.344h-106.688c-11.782 0-21.312-9.532-21.312-21.312s9.53-21.344 21.312-21.344h106.688v-85.344h-64c-11.782 0-21.344-9.532-21.344-21.312s9.562-21.344 21.344-21.344h64v-85.312h-21.344c-11.782 0-21.344-9.564-21.344-21.344s9.562-21.344 21.344-21.344h21.344c0-23.562 19.094-42.656 42.656-42.656h44.812c9.876-48.688 52.906-85.344 104.5-85.344 51.624 0 94.656 36.656 104.532 85.344h281.624c9.876-48.688 52.906-85.344 104.5-85.344 51.624 0 94.656 36.656 104.532 85.344h65.718l0.438 213.344-171.282 170.532zM362.656 192.024c-35.282 0-63.968 28.688-63.968 64 0 35.282 28.688 64 63.968 64 35.312 0 64-28.718 64-64 0-35.314-28.688-64-64-64zM467.188 277.336c-9.876 48.688-52.906 85.344-104.532 85.344-51.594 0-94.624-36.656-104.5-85.344h-44.812l0.032 426.656h469.25l-0.032-426.656h-215.406zM853.312 192.024c-35.282 0-64 28.688-64 64 0 35.282 28.718 64 64 64 35.312 0 64-28.718 64-64 0-35.314-28.688-64-64-64zM981 277.336h-23.156c-9.876 48.688-52.906 85.344-104.532 85.344-51.594 0-94.624-36.656-104.5-85.344h-23.562l0.032 298.656 109.812-0.094 146.218-145.594-0.312-152.968zM853.312 277.336c-11.782 0-21.312-9.532-21.312-21.312s9.532-21.344 21.312-21.344 21.344 9.562 21.344 21.344-9.562 21.312-21.344 21.312z" />
<glyph unicode="&#xe911;" d="M899.154 116.716c-2.478-4.997-8.315-8.315-14.111-8.315h-132.813l-60.559-107.95c-2.478-4.956-8.274-8.253-14.111-8.253-5.796 0-10.793 3.297-14.111 8.253l-118.641 205.148-118.641-202.629c-2.519-4.997-8.315-8.294-14.090-8.294-5.837 0-10.834 3.297-14.152 8.294l-60.539 105.431h-132.833c-5.796 0-10.772 3.318-14.090 8.315-2.478 4.915-3.338 11.551 0 16.568l123.638 219.218c-14.090 5.775-23.224 19.948-21.565 34.857l10.772 77.251-52.285 56.443c-11.633 14.111-10.772 34.058 0.819 45.67l52.285 54.804-9.114 76.39c-1.659 18.227 9.974 34.038 27.402 37.376l75.489 13.23 37.376 67.277c4.137 7.455 10.772 13.292 19.087 15.77 8.274 2.56 17.408 1.7 24.863-2.437l68.055-33.239 69.734 32.379h0.799c16.63 6.656 34.857 0 42.291-15.77l36.516-67.277 75.53-14.909c16.65-3.318 28.242-19.927 26.563-36.557l-10.752-77.21 52.285-56.463c11.592-14.152 10.752-34.038-0.799-45.67l-52.285-54.804 9.073-76.39c0.819-14.93-6.636-28.262-19.087-34.038l122.798-215.9c3.318-4.997 3.318-11.653-0.799-16.568v0zM232.755 141.599h114.524c5.837 0 10.834-3.338 14.090-8.315l51.466-88.842 112.046 195.154-16.63 29.041-34.038-15.79h-0.819c-16.63-6.595-34.836 0-42.291 15.79l-36.516 67.236-47.35 8.315-114.483-202.588zM816.169 536.822l-52.285 56.443c-6.636 6.656-9.953 17.428-8.315 27.402l10.834 76.39-75.551 14.95c-9.093 0.799-17.428 7.455-22.405 15.77l-36.516 68.956c0 0 0 0-0.799 0l-68.874-31.58c-9.093-4.997-20.767-4.997-29.86 0l-68.076 33.26-37.376-67.277c-4.977-9.114-14.090-14.95-23.224-16.63l-75.53-13.251c-0.819-0.86-0.819-1.659-0.819-1.659l9.114-75.592c1.659-9.974-1.659-19.907-9.114-27.402l-52.265-54.804 51.425-56.443c6.636-6.656 9.974-17.428 8.315-27.402l-10.772-76.39 76.349-14.090c9.974-0.881 18.227-7.496 23.224-15.79l36.516-68.936c0 0 0 0 0.86 0l68.854 32.358c9.155 4.997 20.767 4.997 29.921 0l68.035-33.157 37.315 67.215c4.956 9.093 14.090 14.93 23.245 16.63l74.711 12.431-9.196 76.39c-1.638 9.974 1.679 19.948 9.196 27.382l53.064 54.825zM743.977 341.729l-49.828-9.134-37.315-67.236c-5.837-10.813-17.408-16.63-29.041-16.63-4.997 0-9.974 0.84-14.95 3.318l-68.035 33.178-5.796-2.458 18.268-32.399c1.659-1.638 2.519-3.318 3.318-5.755l117.002-202.65 51.466 91.32c2.519 4.977 8.294 8.315 14.090 8.315h114.524l-113.705 200.131z" />
<glyph unicode="&#xe912;" glyph-name="loading" d="M458.897-10.897c-253.045 0-458.897 205.852-458.897 458.897s205.852 458.897 458.897 458.897c253.045 0 458.897-205.882 458.897-458.897 0-14.48-11.732-26.241-26.241-26.241-14.48 0-26.241 11.732-26.241 26.241 0 224.115-182.329 406.474-406.444 406.474-224.144 0-406.474-182.359-406.474-406.474s182.329-406.444 406.474-406.444c143.381 0 277.69 76.862 350.534 200.562 7.358 12.5 23.434 16.608 35.904 9.279s16.608-23.404 9.309-35.904c-82.181-139.628-233.837-226.39-395.717-226.39zM891.553 421.759c-4.521 0-9.131 1.182-13.298 3.635l-164.333 97.045c-12.471 7.358-16.608 23.434-9.249 35.904 7.388 12.471 23.463 16.608 35.934 9.22l143.381-84.664 92.288 132.181c8.304 11.879 24.646 14.775 36.495 6.501 11.879-8.274 14.775-24.616 6.501-36.495l-106.206-152.069c-5.083-7.299-13.209-11.259-21.513-11.259z" />
<glyph unicode="&#xe913;" d="M703.406 575.406l37.888-40.899-38.482-39.69c-5.407-5.386-7.803-12.595-6.574-19.845l6.574-55.296-54.129-8.991c-6.554-1.229-13.21-5.448-16.794-12.042l-27.013-48.722-49.275 24.084c-6.615 3.604-15.012 3.604-21.668 0l-49.869-23.47c-0.614 0-0.614 0-0.614 0l-26.44 49.91c-3.625 6.001-9.626 10.834-16.814 11.448l-55.296 10.24 7.803 55.296c1.208 7.209-1.208 15.053-5.98 19.845l-37.274 40.899 37.868 39.69c5.386 5.386 7.803 12.636 6.595 19.845l-6.595 54.682c0 0 0 0.594 0.614 1.208l54.641 9.626c6.656 1.208 13.251 5.448 16.876 12.022l26.993 48.701 49.295-24.023c6.574-3.625 15.012-3.625 21.627 0l49.93 22.815c0.594 0 0.594 0 0.594 0l26.44-49.91c3.604-6.001 9.646-10.834 16.241-11.448l54.682-10.772-7.803-55.357c-1.249-7.209 1.147-15.012 5.96-19.845v0zM544.768 416.686c-66.13 0-120.238 54.149-120.238 120.259 0 66.13 54.088 120.259 120.238 120.259 66.089 0 120.156-54.149 120.156-120.259 0-66.15-54.108-120.259-120.156-120.259v0zM544.768 633.119c-52.9 0-96.154-43.254-96.154-96.195s43.254-96.195 96.154-96.195c52.879 0 96.113 43.254 96.113 96.195s-43.233 96.195-96.113 96.195v0z" />
<glyph unicode="&#xe914;" d="M617.124 569.119l-77.804-77.804c-4.69-4.69-12.247-4.69-16.937 0-4.649 4.628-4.649 12.186 0 16.876l77.865 77.865c4.649 4.649 12.247 4.649 16.855 0 4.69-4.71 4.69-12.268 0.020-16.937v0zM532.46 484.454c-4.69-4.69-12.288-4.69-16.978 0l-50.872 50.872c-4.69 4.69-4.69 12.288 0 16.978s12.288 4.69 16.978 0l50.872-50.872c4.71-4.69 4.71-12.308 0-16.978v0z" />
<glyph unicode="&#xe915;" glyph-name="close-button" d="M1024 857.6l-102.4 102.4-409.6-409.6-409.6 409.6-102.4-102.4 409.6-409.6-409.6-409.6 102.4-102.4 409.6 409.6 409.6-409.6 102.4 102.4-409.6 409.6z" />
<glyph unicode="&#xe916;" d="M799.683 742.38c-73.175 73.114-170.414 113.459-273.818 113.459-105.308 0-203.817-41.554-277.279-116.941-8.028-8.212-7.823-21.402 0.348-29.553 8.151-8.008 21.361-7.803 29.512 0.348 65.659 67.236 153.436 104.243 247.419 104.243 190.587 0.205 345.539-154.808 345.539-345.436s-154.952-345.641-345.539-345.641c-190.566 0-345.375 155.013-345.375 345.641v4.321l34.202-34.406c4.014-4.035 9.421-6.083 14.807-6.083 5.407 0 10.588 2.068 14.766 6.083 8.151 8.151 8.151 21.361 0 29.512l-69.857 70.062c-8.151 8.151-21.34 8.151-29.491 0l-70.062-70.062c-8.151-8.151-8.151-21.34 0-29.512s21.402-8.151 29.553 0l34.406 34.406v-4.321c0-103.383 40.305-200.745 113.459-273.859 73.134-73.196 170.435-113.48 273.777-113.48 103.383 0 200.704 40.284 273.818 113.48 72.97 73.114 113.254 170.476 113.254 273.859-0.020 103.383-40.325 200.684-113.439 273.879v0z" />
<glyph unicode="&#xe917;" d="M696.033 539.116l-56.996-57.057c-1.085-1.065-2.478-1.577-4.137-1.577-1.516 0-2.867 0.553-3.973 1.679-1.167 1.167-1.72 2.458-1.72 4.035v34.181h-45.568c-5.755 0-10.875-0.901-15.524-2.662s-8.724-4.424-12.288-8.008c-3.584-3.584-6.595-7.25-9.114-10.977-2.478-3.727-5.14-8.315-8.028-13.804-3.789-7.352-8.397-17.531-13.906-30.474-3.42-7.864-6.41-14.459-8.806-19.784-2.417-5.345-5.632-11.571-9.626-18.698-3.973-7.148-7.762-13.087-11.387-17.818-3.645-4.731-8.069-9.667-13.21-14.746-5.202-5.161-10.527-9.236-16.077-12.247-5.489-3.031-11.817-5.509-18.924-7.455-7.168-1.987-14.766-2.99-22.815-2.99h-39.936c-1.659 0-3.011 0.553-4.076 1.618s-1.597 2.417-1.597 4.055v34.263c0 1.659 0.532 3.011 1.597 4.076s2.417 1.618 4.076 1.618h39.936c5.693 0 10.875 0.901 15.524 2.662 4.628 1.761 8.704 4.424 12.288 8.028 3.523 3.564 6.595 7.209 9.052 10.977 2.519 3.727 5.202 8.315 8.028 13.804 3.83 7.352 8.458 17.51 13.906 30.474 3.482 7.844 6.41 14.397 8.806 19.784 2.478 5.345 5.632 11.571 9.626 18.678s7.823 13.046 11.448 17.838c3.625 4.731 8.008 9.667 13.21 14.766 5.14 5.12 10.465 9.216 16.015 12.247 5.53 3.011 11.817 5.489 18.985 7.455 7.107 1.966 14.705 2.97 22.815 2.97h45.568v34.202c0 1.659 0.553 3.011 1.618 4.076 1.065 1.106 2.417 1.618 4.076 1.618 1.454 0 2.867-0.614 4.28-1.761l56.852-56.852c1.065-1.065 1.597-2.417 1.597-4.076 0-1.72-0.532-3.072-1.597-4.116v0zM472.637 477.266c-2.621 5.345-4.833 9.667-6.595 12.882-1.823 3.277-4.178 7.066-7.25 11.346-3.011 4.28-6.042 7.66-9.052 10.076s-6.758 4.526-11.244 6.246c-4.424 1.72-9.257 2.56-14.5 2.56h-39.936c-1.659 0-3.011 0.553-4.076 1.618s-1.597 2.417-1.597 4.076v34.243c0 1.659 0.532 3.011 1.597 4.076s2.417 1.618 4.076 1.618h39.936c29.655 0 54.047-13.394 73.011-40.1-7.107-10.916-15.278-27.136-24.371-48.64v0zM696.033 379.453l-56.996-57.016c-1.085-1.044-2.437-1.597-4.137-1.597-1.516 0-2.867 0.553-3.973 1.659-1.126 1.167-1.72 2.458-1.72 4.014v34.202c-3.768 0-8.806 0-15.094-0.041-6.308-0.123-11.141-0.164-14.459-0.205-3.318-0.061-7.639 0-13.005 0.205-5.325 0.143-9.564 0.43-12.636 0.84-3.113 0.41-6.881 1.085-11.428 1.884-4.485 0.84-8.253 1.966-11.223 3.318-2.99 1.352-6.41 3.072-10.342 5.079-3.912 2.028-7.393 4.383-10.527 7.107-3.072 2.724-6.349 5.898-9.789 9.523-3.482 3.625-6.799 7.762-9.953 12.37 7.004 11.080 15.053 27.259 24.228 48.66 2.621-5.345 4.772-9.667 6.595-12.882 1.761-3.277 4.178-7.045 7.209-11.325s6.042-7.66 9.052-10.076c3.011-2.396 6.799-4.526 11.244-6.246 4.485-1.72 9.318-2.56 14.561-2.56h45.568v34.181c0 1.659 0.553 3.011 1.618 4.076 1.065 1.106 2.417 1.618 4.076 1.618 1.454 0 2.867-0.614 4.28-1.761l56.852-56.852c1.065-1.065 1.597-2.417 1.597-4.076s-0.532-3.031-1.597-4.096v0z" />
<glyph unicode="&#xe918;" d="M749.65 433.603c90.685 0 164.454 73.81 164.454 164.495 0 90.644-73.789 164.434-164.454 164.434s-164.434-73.789-164.434-164.434c0-90.685 73.769-164.495 164.434-164.495v0zM749.65 725.955c70.492 0 127.898-57.344 127.898-127.877 0-70.554-57.405-127.918-127.898-127.918-70.513 0-127.918 57.364-127.918 127.918 0 70.533 57.405 127.877 127.918 127.877v0z" />
<glyph unicode="&#xe919;" d="M841.032 342.282c-35.676 0-109.65-19.886-147.149-30.659-4.977 52.449-72.151 71.004-141.578 85.094-31.683 6.41-55.276 17.797-78.090 28.774-28.099 13.599-54.682 26.419-90.010 26.419-40.468 0-77.332-8.274-98.14-14.029-5.509 19.128-21.115 34.591-41.82 38.707l-148.767 29.778c-5.366 1.044-10.957-0.348-15.196-3.809-4.198-3.461-6.676-8.663-6.676-14.111v-292.352c0-10.097 8.151-18.289 18.268-18.289h114.483c22.548 0 41.779 14.356 50.053 34.529 40.858-19.497 230.093-107.622 310.518-107.622 70.861 0 216.74 71.721 313.283 119.153 25.19 12.37 46.019 22.63 59.494 28.59 6.636 2.888 10.916 9.482 10.916 16.691 0.020 43.090-45.036 73.134-109.588 73.134v0zM251.597 420.27l-27.197-190.239c-1.249-8.929-9.032-15.688-18.043-15.688h-96.215v251.822l126.956-25.416c9.523-1.905 15.892-10.875 14.5-20.48v0zM864.072 256.676c-87.798-43.131-234.762-115.384-297.144-115.384-66.478 0-241.009 77.763-302.653 107.786-0.041 0.041-0.143 0-0.225 0.041l21.524 150.61c13.292 4.137 53.985 15.626 98.632 15.626 26.972 0 47.78-10.035 74.158-22.712 23.634-11.448 50.463-24.371 86.651-31.744 79.38-16.036 113.234-32.584 113.234-55.132 0-4.465-1.331-7.25-4.792-9.83-11.592-8.602-56.914-23.245-227.512 27.382-9.667 2.847-19.866-2.683-22.712-12.349-2.867-9.708 2.621-19.886 12.329-22.733 84.173-24.924 148.521-37.396 194.13-37.396 29.757 0 51.548 5.304 65.659 15.852 1.208 0.881 2.068 2.028 3.195 2.99 1.126 0.123 2.232 0 3.42 0.348 32.276 9.953 123.843 35.758 159.089 35.758 29.778 0 61.112-9.093 70.39-26.051-12.78-6.083-28.938-13.988-47.37-23.060v0z" />
<glyph unicode="&#xe91a;" d="M805.847 635.29c-0.676 0.696-1.597 1.044-2.724 1.044h-20.070c-1.331 6.226-3.85 16.056-7.537 20.644h27.402c1.106 0 1.987 0.348 2.683 1.004 0.737 0.696 1.106 1.556 1.106 2.58v11.551c0 1.044-0.369 1.905-1.106 2.56-0.696 0.696-1.577 1.044-2.683 1.044h-97.792c-1.126 0-2.048-0.348-2.724-1.044-0.696-0.655-1.065-1.516-1.065-2.56v-15.012c0-1.004 0.369-1.864 1.126-2.56 0.737-0.737 1.618-1.085 2.662-1.085h17.019c16.527 0 27.034-8.643 31.498-17.121h-48.517c-1.126 0-2.048-0.348-2.724-1.044-0.696-0.655-1.065-1.516-1.065-2.601v-11.53c0-1.044 0.369-1.905 1.065-2.58 0.676-0.696 1.597-1.004 2.724-1.004h50.176c-1.741-6.185-5.734-10.916-12.042-14.111-6.328-3.236-14.643-4.895-24.986-4.895h-13.148c-1.044 0-1.925-0.348-2.662-1.044-0.758-0.737-1.126-1.556-1.126-2.56v-14.316c0-1.004 0.369-1.823 1.065-2.519 15.053-15.36 34.57-36.844 58.532-64.451 0.717-0.901 1.659-1.372 2.929-1.372h22.938c1.659 0 2.765 0.696 3.42 2.028 0.778 1.393 0.594 2.642-0.471 3.85-22.897 26.972-40.858 47.145-53.985 60.518 13.332 1.516 24.166 5.673 32.481 12.411 8.294 6.799 13.353 15.585 15.135 26.46h19.743c1.126 0 2.048 0.307 2.724 1.004 0.696 0.696 1.044 1.556 1.044 2.58v11.53c-0.020 1.065-0.348 1.925-1.044 2.601v0z" />
<glyph unicode="&#xe91b;" d="M935.26 403.988c-1.331 2.417-39.629 40.428-39.629 40.428l-144.65 144.056-121.856 121.016c-34.202 36.065-72.192 67.277-72.192 67.277-44.237 34.222-83.866-0.819-83.866-0.819-1.618-0.553-29.061-24.433-29.061-24.433l-229.622-228.454-120.75-121.569c-29.573-38.502-14.397-70.984-14.397-70.984 20.931-45.875 77.64-46.346 77.64-46.346h247.255l112.333 113.684 111.022-113.684h239.636c27.136 0 52.122 11.592 52.122 11.592 32.85 20.070 36.065 45.138 36.065 45.138 4.628 37.437-20.050 63.099-20.050 63.099zM919.163 346.808c-0.758-2.212-4.403-8.192-17.695-16.753-5.714-2.58-19.19-4.936-31.826-4.936h-0.594c-0.512 0-1.413 0-1.925 0 0 0-197.304 0-224.256 0-17.531 0-100.27 96.932-100.27 96.932-6.84 7.045-16.241 5.468-26.092 5.468-0.061 0-0.143 0-0.205 0-9.728 0-19.046 1.843-25.887-5.1 0 0-84.050-97.3-101.56-97.3-26.194 0-220.058 0-230.932 0-0.307 0-33.71-1.208-45.015 22.036-0.328 0.922-0.983 2.212-0.983 6.062 0 8.335 3.092 16.323 9.298 24.883 3.195 3.195 119.132 119.542 119.132 119.542l-0.143-0.369c0 0 228.147 226.877 229.13 227.86 10.076 8.704 21.996 18.821 24.596 20.849 0 0-4.076-2.089-6.779-3.461 3.133 1.659 7.619 4.076 9.687 5.591 0.184 0.143 0.369 0.266 0.492 0.41-0.020 0-0.369-0.328-0.451-0.43 0.676 0.635 9.134 7.107 19.21 7.107 6.001 0 12.042-2.437 18.391-7.373-0.123 0.102-0.43 0.369-0.512 0.43 0.246-0.184 0.532-0.451 0.532-0.451s-0.020 0-0.020 0c4.813-3.994 38.154-31.99 68.055-63.508 0.266-0.287 0.492-0.532 0.758-0.819l121.897-121.016 144.609-143.974c15.442-15.36 33.997-34.058 37.069-37.581 0 0-1.761 2.621-2.724 4.055 1.208-1.741 3.133-4.506 4.26-5.857 0.041-0.041 0.082-0.123 0.143-0.164 0.041-0.082 0.164-0.123 0.287-0.266 1.925-2.437 10.527-13.824 10.527-28.611 0-1.085-0.123-2.232-0.205-3.256z" />
<glyph unicode="&#xe91c;" d="M499.016 634.266c0 0 14.438 18.432 32.87 0l42.865-42.988 82.514-82.534c0 0 8.499-8.765 9.585-11.366-0.020 0 6.001-7.905 0.84-17.777 0 0-6.902-8.315-18.166-8.049h-269.496c0 0-20.091 1.393-19.026 17.367 0 0 0.43 8.458 9.318 16.507l63.816 63.754 64.881 65.085z" />
<glyph unicode="&#xe91d;" d="M50.012 301.957c0 0 52.859-55.276 85.361-60.969 0 0 19.436-2.99 31.969-2.99h698.184c0 0 33.731-2.355 59.126 17.347 0 0 26.89 18.78 54.948 46.592 0 0-26.583-55.869-48.64-80.65 0 0-16.138-24.187-59.105-25.948h-703.652c0 0-39.076-5.714-66.826 22.671 0.020 0.020-31.068 37.642-51.364 83.948v0z" />
<glyph unicode="&#xe91e;" d="M596.828 453.489l67.891 67.891 106.168 82.493c0.041 0.102 0.143 0.143 0.246 0.246 0.266 0.205 0.492 0.41 0.717 0.655 0.246 0.205 0.492 0.41 0.737 0.655 0.205 0.266 0.43 0.451 0.655 0.717 0.205 0.246 0.43 0.492 0.655 0.758 0.041 0.102 0.143 0.143 0.205 0.266l83.231 107.028c5.734 7.352 5.1 17.818-1.495 24.412l-47.534 47.596c-6.595 6.595-17.142 7.25-24.474 1.516l-107.028-83.231c-0.102-0.041-0.205-0.164-0.266-0.205-0.246-0.205-0.492-0.451-0.799-0.655-0.205-0.246-0.451-0.451-0.696-0.655-0.205-0.266-0.41-0.512-0.655-0.717-0.205-0.246-0.451-0.492-0.655-0.819-0.041-0.041-0.164-0.143-0.205-0.205l-82.534-106.107-67.891-67.891zM361.124 494.121l64.43-64.41-37.212-37.212c-19.19 8.561-42.496 5.1-58.225-10.629l-154.624-154.624c-9.851-9.81-15.237-22.897-15.237-36.864 0-13.906 5.386-26.993 15.237-36.884l47.596-47.514c9.81-9.871 22.917-15.278 36.864-15.278 13.906 0 26.993 5.407 36.884 15.278l72.52 72.458c7.209 7.25 7.209 18.985 0 26.173-7.25 7.209-18.944 7.209-26.194 0l-72.52-72.52c-2.867-2.867-6.636-4.424-10.67-4.424-4.055 0-7.844 1.556-10.711 4.424l-47.636 47.616c-2.826 2.888-4.424 6.636-4.424 10.67 0 4.076 1.597 7.864 4.424 10.711l154.665 154.563c5.898 5.898 15.524 5.96 21.422 0l47.575-47.514c5.898-5.919 5.898-15.524 0-21.422l-36.557-36.557c-7.25-7.209-7.25-18.944 0-26.132 7.209-7.25 18.944-7.25 26.132 0l36.557 36.516c15.729 15.77 19.231 39.076 10.629 58.204l37.274 37.233zM793.641 748.462l24.474-24.474-60.334-77.619-41.738 41.759 77.599 60.334zM689.889 661.934l41.718-41.697-77.619-60.334-24.474 24.474 60.375 77.558zM604.877 556.687l21.402-21.402-55.603-55.603-21.402 21.402 55.603 55.603zM438.313 347.382l-21.402 21.402 34.796 34.734 21.402-21.34-34.796-34.796z" />
<glyph unicode="&#xe91f;" d="M479.273 376.033l72.97-72.929c-18.125-54.764-4.157-114.831 37.13-156.078 29.43-29.409 68.342-44.913 108.032-44.913 20.132 0 40.53 3.953 59.986 12.247 5.673 2.355 9.769 7.434 10.916 13.476 1.229 6.042-0.696 12.247-5.018 16.65l-82.104 82.043 45.179 45.158 82.084-82.043c4.383-4.321 10.588-6.246 16.63-5.079s11.080 5.284 13.496 10.916c24.474 57.713 11.633 123.638-32.686 167.956-41.308 41.308-101.376 55.235-156.119 37.151l-72.929 72.95zM529.633 521.236l-26.604 26.030-64.41 64.41c18.084 54.682 4.116 114.77-37.171 156.078-44.319 44.278-110.244 57.119-167.956 32.686-5.673-2.417-9.769-7.455-10.977-13.496-1.147-6.042 0.758-12.288 5.1-16.63l80.056-80.077-45.158-45.179-80.118 80.036c-4.342 4.383-10.588 6.308-16.65 5.1-5.98-1.167-11.080-5.243-13.476-10.936-24.433-57.713-11.592-123.638 32.727-167.956 41.308-41.288 101.396-55.194 156.078-37.11l64.451-64.43 25.375-26.604zM576.922 474.030l-47.677 47.043zM431.329 423.281l0.369 0.307 47.698-48.292zM812.483 237.937l-73.032 72.97c-7.209 7.209-18.924 7.25-26.112 0l-71.373-71.352c-3.461-3.441-5.448-8.151-5.448-13.046 0-4.956 1.987-9.646 5.448-13.128l72.97-72.97c-35.922-5.489-72.786 6.144-99.369 32.748-33.608 33.587-43.315 83.599-24.781 127.365 2.929 6.902 1.352 14.95-3.932 20.296l-228.045 227.901c-3.523 3.564-8.253 5.427-13.046 5.427-2.458 0-4.874-0.451-7.25-1.454-43.766-18.534-93.778-8.806-127.386 24.781-26.583 26.583-38.216 63.406-32.748 99.328l71.025-70.963c7.209-7.25 18.944-7.25 26.132 0l71.352 71.311c7.25 7.25 7.25 18.924 0 26.194l-70.963 70.963c35.922 5.489 72.724-6.144 99.328-32.748 33.587-33.587 43.356-83.558 24.781-127.365-2.929-6.902-1.352-14.95 3.973-20.255l227.983-227.942c5.345-5.325 13.332-6.881 20.296-3.953 43.827 18.575 93.778 8.806 127.365-24.781 26.624-26.542 38.298-63.427 32.829-99.328v0z" />
<glyph unicode="&#xe920;" d="M856.719 596.541l-140.718 178.524c-3.523 4.485-8.724 7.045-14.397 7.045h-369.459c-5.693 0-10.875-2.56-14.397-7.045l-140.718-178.524c-2.621-3.236-3.973-7.209-3.973-11.387v-501.862c0-10.138 8.253-18.371 18.371-18.371h650.732c10.117 0 18.371 8.233 18.371 18.371v501.862c0.143 4.178-1.188 8.151-3.809 11.387v0zM806.728 600.515h-271.421v144.794h157.389l114.033-144.794zM341.053 745.308h157.389v-144.794h-271.401l114.012 144.794zM209.859 101.724v461.967h613.868v-461.988l-613.868 0.020z" />
<glyph unicode="&#xe921;" d="M618.435 428.728l-143.565-143.688-59.679 59.679c-8.356 8.417-21.955 8.417-30.372 0-8.356-8.397-8.356-21.955 0-30.351l74.834-74.875c4.137-4.137 9.667-6.267 15.217-6.267s10.875 2.13 15.155 6.267l158.597 158.679c8.417 8.397 8.417 21.955 0 30.372-8.212 8.602-21.77 8.602-30.188 0.184v0z" />
<glyph unicode="&#xe922;" d="M786.985 153.907c-21.832 0-42.373 8.52-58.245 24.023-15.811 15.688-24.392 36.065-24.392 57.938 0 21.832 8.765 42.25 24.392 57.917 15.667 15.462 36.393 24.064 58.245 24.064 44.79 0 81.162-36.823 81.162-81.981 0-45.199-36.393-81.961-81.162-81.961v0zM786.985 281.395c-25.129 0-46.244-20.787-46.244-45.548s21.115-45.568 46.244-45.568c24.76 0 44.79 20.398 44.79 45.568-0.020 25.129-20.029 45.548-44.79 45.548v0zM850.678 409.825h-148.152c-9.994 0-18.166 8.172-18.166 18.207v149.361c0 10.035 8.151 18.207 18.166 18.207h93.389c4.547 0 8.95-1.618 12.206-4.731l54.804-49.336c3.789-3.461 6.001-8.376 6.001-13.517v-99.983c-0.020-10.035-8.253-18.207-18.248-18.207v0zM832.471 519.987l-43.704 39.342h-68.055v-113.070h111.759v73.728zM342.508 153.907c-21.832 0-42.373 8.52-58.225 24.023-15.831 15.688-24.412 36.065-24.412 57.938 0 21.832 8.765 42.25 24.412 57.917 15.647 15.462 36.372 24.064 58.225 24.064 44.81 0 81.183-36.823 81.183-81.981 0-45.199-36.372-81.961-81.183-81.961v0zM342.508 281.395c-25.088 0-46.203-20.787-46.203-45.548s21.135-45.568 46.203-45.568c24.76 0 44.81 20.398 44.81 45.568 0 25.129-20.050 45.548-44.81 45.548v0zM221.123 258.99h-54.784c-9.994 0-18.207 8.192-18.207 18.248v66.642c0 10.035 8.212 18.207 18.207 18.207 10.035 0 18.207-8.151 18.207-18.207v-48.435h36.577c9.994 0 18.207-8.192 18.207-18.207 0-10.056-8.212-18.248-18.207-18.248v0zM295.178 376.484h-220.774c-9.994 0-18.166 8.192-18.166 18.227s8.172 18.207 18.166 18.207h220.774c10.035 0 18.207-8.151 18.207-18.207 0-10.199-8.172-18.227-18.207-18.227v0zM332.145 459.162l-220.754 1.29c-10.035 0-18.227 8.172-18.063 18.371 0 10.035 8.212 18.063 18.207 18.063 0 0 0 0 0.205 0l220.774-1.311c9.994 0 18.207-8.172 18.022-18.35-0.164-10.035-8.376-18.063-18.391-18.063v0zM369.295 543.15h-220.795c-10.035 0-18.207 8.212-18.207 18.207 0 10.035 8.172 18.227 18.207 18.227h220.774c9.994 0 18.166-8.172 18.166-18.227 0.020-9.994-8.151-18.207-18.145-18.207v0zM948.613 277.361c0-9.953-8.192-18.002-18.227-18.002h-36.946c-10.035 0-18.186 8.172-18.186 18.207 0 9.994 8.131 18.248 18.186 18.248h18.924l1.29 249.344-118.682 98.365h-146.698v-348.099h36.577c10.035 0 18.227-8.192 18.227-18.207 0-10.035-8.172-18.248-18.227-18.248h-222.228c-9.994 0-18.166 8.192-18.166 18.248 0 9.994 8.172 18.207 18.166 18.207h149.279v431.882h-427.356v-115.118c0-10.035-8.172-18.207-18.207-18.207-9.994 0-18.207 8.172-18.207 18.207v133.325c0 10.035 8.212 18.207 18.207 18.207h463.585c9.974 0 18.207-8.172 18.207-18.207v-65.577h153.231c4.383 0 8.356-1.475 11.633-4.198l130.314-107.991c4.198-3.461 6.554-8.765 6.758-14.213l-1.454-276.173z" />
<glyph unicode="&#xe923;" d="M786.985 153.907c-21.832 0-42.373 8.52-58.245 24.023-15.811 15.688-24.392 36.065-24.392 57.938 0 21.832 8.765 42.25 24.392 57.917 15.667 15.462 36.393 24.064 58.245 24.064 44.79 0 81.162-36.823 81.162-81.981 0-45.199-36.393-81.961-81.162-81.961v0zM786.985 281.395c-25.129 0-46.244-20.787-46.244-45.548s21.115-45.568 46.244-45.568c24.76 0 44.79 20.398 44.79 45.568-0.020 25.129-20.029 45.548-44.79 45.548v0zM850.678 409.825h-148.152c-9.994 0-18.166 8.172-18.166 18.207v149.361c0 10.035 8.151 18.207 18.166 18.207h93.389c4.547 0 8.95-1.618 12.206-4.731l54.804-49.336c3.789-3.461 6.001-8.376 6.001-13.517v-99.983c-0.020-10.035-8.253-18.207-18.248-18.207v0zM832.471 519.987l-43.704 39.342h-68.055v-113.070h111.759v73.728zM342.508 153.907c-21.832 0-42.373 8.52-58.225 24.023-15.831 15.688-24.412 36.065-24.412 57.938 0 21.832 8.765 42.25 24.412 57.917 15.647 15.462 36.372 24.064 58.225 24.064 44.81 0 81.183-36.823 81.183-81.981 0-45.199-36.372-81.961-81.183-81.961v0zM342.508 281.395c-25.088 0-46.203-20.787-46.203-45.548s21.135-45.568 46.203-45.568c24.76 0 44.81 20.398 44.81 45.568 0 25.129-20.050 45.548-44.81 45.548v0zM295.178 376.484h-220.774c-9.994 0-18.166 8.192-18.166 18.227s8.172 18.207 18.166 18.207h220.774c10.035 0 18.207-8.151 18.207-18.207 0-10.199-8.172-18.227-18.207-18.227v0zM332.145 459.162l-220.754 1.29c-10.035 0-18.227 8.172-18.063 18.371 0 10.035 8.212 18.063 18.207 18.063 0 0 0 0 0.205 0l220.774-1.311c9.994 0 18.207-8.172 18.022-18.35-0.164-10.035-8.376-18.063-18.391-18.063v0zM369.295 543.15h-220.795c-10.035 0-18.207 8.212-18.207 18.207 0 10.035 8.172 18.227 18.207 18.227h220.774c9.994 0 18.166-8.172 18.166-18.227 0.020-9.994-8.151-18.207-18.145-18.207v0z" />
<glyph unicode="&#xe924;" d="M599.204 693.576c-10.076-9.605-10.076-25.58-0.41-35.656l240.722-245.166-254.566-262.779c-9.687-10.076-9.236-26.030 0.41-35.656 5.038-4.649 11.325-7.168 17.613-7.168 6.697 0 12.984 2.519 18.022 7.557l271.79 280.412c9.646 9.667 9.646 25.58 0 35.267l-257.925 262.799c-10.056 9.667-25.989 10.056-35.656 0.389v0z" />
<glyph unicode="&#xe925;" d="M762.716 399.319l-271.79-279.962c-4.628-4.649-10.936-7.168-17.613-7.168h-0.41c-6.697 0-12.984 2.13-17.613 6.697l-303.247 294.728c-5.038 4.588-7.557 11.346-7.557 18.022l1.659 276.644c0 13.844 11.325 24.781 25.17 24.781l281.436 0.41c6.287 0 12.984-2.519 17.613-7.107l291.901-291.758c10.097-9.646 10.097-25.211 0.451-35.287v0zM442.266 683.971l-245.801-0.86-1.679-240.927 277.258-269.537 236.995 244.306-266.772 267.018zM319.386 557.609c-5.14 0-9.277 4.137-9.277 9.216 0 5.1 4.137 9.277 9.277 9.277 5.1 0 9.216-4.178 9.216-9.277 0-5.079-4.116-9.216-9.216-9.216v0zM319.386 532.439c-18.883 0-34.406 15.503-34.406 34.386s15.503 34.447 34.406 34.447c18.821 0 33.935-15.565 34.406-34.447 0-18.883-15.565-34.386-34.406-34.386v0zM319.386 582.799c-8.806 0-15.954-7.148-15.954-15.974 0-8.806 7.148-15.954 15.954-15.954s15.913 7.148 15.913 15.954c0 8.806-7.107 15.974-15.913 15.974v0z" />
<glyph unicode="&#xe926;" glyph-name="credit-card" d="M917.334 789.334h-810.668c-58.794 0-106.666-47.872-106.666-106.668v-469.334c0-58.794 47.872-106.666 106.666-106.666h810.666c58.794 0 106.666 47.872 106.666 106.666v469.334c0.002 58.796-47.87 106.668-106.664 106.668zM981.334 213.334c0-35.286-28.714-64-64-64h-810.668c-35.286 0-64 28.714-64 64v469.332c0 35.286 28.714 64 64 64h810.666c35.286 0 64-28.714 64-64v-469.332zM1002.666 661.334h-981.332c-11.776 0-21.334-9.558-21.334-21.334v-128c0-11.776 9.558-21.334 21.334-21.334h981.334c11.776 0 21.334 9.558 21.334 21.334v128c-0.002 11.776-9.56 21.334-21.336 21.334zM981.334 533.334h-938.668v85.334h938.666v-85.334zM320 362.666h-170.666c-11.776 0-21.334-9.558-21.334-21.334s9.558-21.332 21.334-21.332h170.666c11.776 0 21.334 9.558 21.334 21.334s-9.558 21.332-21.334 21.332zM448 277.334h-298.666c-11.776 0-21.334-9.558-21.334-21.334s9.558-21.334 21.334-21.334h298.666c11.776 0 21.334 9.558 21.334 21.334s-9.558 21.334-21.334 21.334z" />
<glyph unicode="&#xe927;" glyph-name="engagement-ring" d="M571.35 660.040l147.224 186.522c5.115 6.469 4.395 15.8-1.648 21.418l-94.397 87.781c-2.933 2.723-6.794 4.24-10.794 4.24h-203.85c-4.001 0-7.862-1.517-10.795-4.24l-94.395-87.781c-6.043-5.618-6.763-14.949-1.648-21.418l147.757-187.21c-170.949-30.024-301.294-179.467-301.294-358.893 0-200.971 163.512-364.459 364.49-364.459s364.491 163.488 364.491 364.459c0 180.773-132.301 331.147-305.141 359.581zM402.884 917.862l24.658-49.325h-77.696l53.038 49.325zM669.774 868.538h-77.707l24.667 49.325 53.040-49.325zM551.476 836.842l-41.418-150.133-40.029 150.133h81.446zM476.318 868.538l33.485 41.862 33.485-41.862h-66.97zM584.348 836.842h86.176l-132.471-167.826 46.295 167.826zM567.11 889.491l-31.045 38.814h50.451l-19.406-38.814zM452.495 889.507l-19.394 38.798h50.434l-31.040-38.798zM437.223 836.842l44.97-168.637-133.099 168.637h88.13zM511.999-32.306c-183.506 0-332.795 149.282-332.795 332.765 0 169.779 127.882 310.024 292.338 330.085l25.818-32.714c3.011-3.806 7.592-6.035 12.443-6.035s9.432 2.229 12.443 6.035l26.293 33.312c166.363-18.269 296.258-159.541 296.258-330.683 0-183.483-149.29-332.765-332.797-332.765zM511.993 577.805c-152.918 0-277.323-124.411-277.323-277.346 0-152.918 124.405-277.314 277.323-277.314 152.925 0 277.338 124.395 277.338 277.314 0 152.934-124.413 277.346-277.338 277.346zM511.993 54.84c-135.438 0-245.627 110.189-245.627 245.619 0 135.446 110.189 245.651 245.627 245.651 135.445 0 245.642-110.205 245.642-245.651 0-135.43-110.197-245.619-245.642-245.619z" />
<glyph unicode="&#xe928;" glyph-name="note" d="M896 960h-768c-35.344 0-64-28.626-64-64v-896c0-35.376 28.656-64 64-64h576l256 256v704c0 35.374-28.624 64-64 64zM704 26.5v165.5h165.5l-165.5-165.5zM896 256h-192c-35.376 0-64-28.624-64-64v-192h-512v896h768v-640zM192 736c0 17.688 14.312 32 32 32h576c17.688 0 32-14.312 32-32s-14.312-32-32-32h-576c-17.688 0-32 14.312-32 32zM192 544c0 17.688 14.312 32 32 32h576c17.688 0 32-14.312 32-32s-14.312-32-32-32h-576c-17.688 0-32 14.312-32 32zM192 352c0 17.688 14.312 32 32 32h576c17.688 0 32-14.312 32-32s-14.312-32-32-32h-576c-17.688 0-32 14.312-32 32z" />
<glyph unicode="&#xe929;" glyph-name="settings" d="M971.585 555.492l-71.874 12.193c-7.487 24.172-17.113 47.488-28.878 69.735l42.354 59.253c17.969 25.242 15.188 59.681-6.845 81.5l-63.746 63.746c-11.979 11.979-27.808 18.61-44.707 18.61-13.263 0-25.883-4.064-36.579-11.765l-59.467-42.354c-23.102 12.193-47.274 22.247-72.302 29.734l-11.979 71.019c-5.134 30.589-31.445 52.836-62.462 52.836h-90.057c-31.017 0-57.328-22.247-62.462-52.836l-12.407-72.73c-23.958-7.487-47.274-17.327-69.521-29.306l-58.826 42.354c-10.696 7.701-23.53 11.765-36.793 11.765-16.899 0-32.942-6.631-44.707-18.61l-63.959-63.746c-21.819-21.819-24.814-56.259-6.845-81.5l42.782-60.109c-11.765-22.461-21.177-45.777-28.45-69.949l-71.019-11.979c-30.589-5.134-52.836-31.445-52.836-62.462v-90.057c0-31.017 22.247-57.328 52.836-62.462l72.73-12.407c7.487-23.958 17.327-47.274 29.306-69.521l-42.141-58.612c-17.969-25.242-15.188-59.681 6.845-81.5l63.746-63.746c11.979-11.979 27.808-18.61 44.707-18.61 13.263 0 25.883 4.064 36.579 11.765l60.109 42.782c21.605-11.337 44.28-20.535 67.596-27.808l11.979-71.874c5.134-30.589 31.445-52.836 62.462-52.836h90.271c31.017 0 57.328 22.247 62.462 52.836l12.193 71.874c24.172 7.487 47.488 17.113 69.735 28.878l59.253-42.354c10.696-7.701 23.53-11.765 36.793-11.765v0c16.899 0 32.728 6.631 44.707 18.61l63.746 63.746c21.819 21.819 24.814 56.259 6.845 81.5l-42.354 59.467c11.765 22.461 21.605 45.777 28.878 69.735l71.874 11.979c30.589 5.134 52.836 31.445 52.836 62.462v90.057c0.428 31.017-21.819 57.328-52.408 62.462zM966.665 402.973c0-2.781-1.925-5.134-4.706-5.562l-89.843-14.974c-11.337-1.925-20.322-10.268-23.102-21.177-8.129-31.445-20.535-61.606-37.221-89.629-5.776-9.84-5.348-22.033 1.283-31.445l52.836-74.441c1.497-2.139 1.283-5.348-0.642-7.273l-63.746-63.746c-1.497-1.497-2.995-1.711-4.064-1.711-1.283 0-2.353 0.428-3.209 1.070l-74.227 52.836c-9.198 6.631-21.605 7.059-31.445 1.283-28.022-16.685-58.184-29.092-89.629-37.221-11.123-2.781-19.466-11.979-21.177-23.102l-15.188-89.843c-0.428-2.781-2.781-4.706-5.562-4.706h-90.057c-2.781 0-5.134 1.925-5.562 4.706l-14.974 89.843c-1.925 11.337-10.268 20.322-21.177 23.102-30.589 7.915-60.109 20.108-87.704 35.937-4.492 2.567-9.626 3.85-14.546 3.85-5.776 0-11.765-1.711-16.685-5.348l-74.869-53.264c-1.070-0.642-2.139-1.070-3.209-1.070-0.856 0-2.567 0.214-4.064 1.711l-63.746 63.746c-1.925 1.925-2.139 4.92-0.642 7.273l52.622 73.799c6.631 9.412 7.059 21.819 1.283 31.659-16.685 27.808-29.52 57.97-37.648 89.415-2.995 10.909-11.979 19.252-23.102 21.177l-90.484 15.402c-2.781 0.428-4.706 2.781-4.706 5.562v90.057c0 2.781 1.925 5.134 4.706 5.562l89.201 14.974c11.337 1.925 20.535 10.268 23.316 21.391 7.915 31.445 20.108 61.82 36.579 89.843 5.776 9.84 5.134 22.033-1.497 31.231l-53.264 74.869c-1.497 2.139-1.283 5.348 0.642 7.273l63.746 63.746c1.497 1.497 2.995 1.711 4.064 1.711 1.283 0 2.353-0.428 3.209-1.070l73.799-52.622c9.412-6.631 21.819-7.059 31.659-1.283 27.808 16.685 57.97 29.52 89.415 37.648 10.909 2.995 19.252 11.979 21.177 23.102l15.402 90.484c0.428 2.781 2.781 4.706 5.562 4.706h90.057c2.781 0 5.134-1.925 5.562-4.706l14.974-89.201c1.925-11.337 10.268-20.535 21.391-23.316 32.301-8.129 63.104-20.749 91.768-37.648 9.84-5.776 22.033-5.348 31.445 1.283l73.799 53.050c1.070 0.642 2.139 1.070 3.209 1.070 0.856 0 2.567-0.214 4.064-1.711l63.746-63.746c1.925-1.925 2.139-4.92 0.642-7.273l-52.836-74.227c-6.631-9.198-7.059-21.605-1.283-31.445 16.685-28.022 29.092-58.184 37.221-89.629 2.781-11.123 11.979-19.466 23.102-21.177l89.843-15.188c2.781-0.428 4.706-2.781 4.706-5.562v-90.057h-0.214zM512.104 669.078c-121.929 0-220.97-99.041-220.97-220.97s99.041-220.97 220.97-220.97 220.97 99.041 220.97 220.97-99.041 220.97-220.97 220.97zM512.104 284.894c-90.057 0-163.214 73.158-163.214 163.214s73.158 163.214 163.214 163.214 163.214-73.158 163.214-163.214-73.158-163.214-163.214-163.214z" />
<glyph unicode="&#xe92a;" glyph-name="rupee" d="M241.5 783.299v-2.724h138.813c23.327 0 49.562-4.71 78.705-14.090 40.817-15.913 68.321-38.154 82.514-66.724v-1.065h-248.074c-0.737 0-18.432-24.965-53.043-74.854 0-1.434 0.737-2.171 2.191-2.171h312.627c0-11.571-2.15-22.753-6.554-33.628-28.078-74.138-99.656-111.186-214.815-111.186-24.392 0-45.732 1.249-63.959 3.789l-1.065-2.703v-72.131c0-1.106 102.748-120.381 308.224-357.97h139.407c-210.964 244.756-316.436 368.968-316.436 372.593v1.065c46.633 0 95.457 12.124 146.452 36.332 27.361 10.854 55.951 34.529 85.791 71.086 22.61 36.147 35 67.052 37.192 92.713h97.28c0.717 0 17.838 24.965 51.405 74.875 0 1.065-0.963 1.802-2.765 2.171h-149.77c-6.922 32.174-20.050 59.453-39.363 81.879h140.472c3.994 3.277 21.484 28.57 52.449 75.94v1.106h-525.722c-1.106 0-18.432-24.76-51.958-74.301v0 0z" />
<glyph unicode="&#xe92b;" glyph-name="flower" d="M1023.898 459.508c-1.62 49.26-22.34 94.96-58.32 128.64-35.98 33.7-82.92 51.36-132.2 49.74-5.5-0.18-11.020-0.42-16.54-0.74 2.58 4.88 5.14 9.78 7.62 14.72 45.9 90.82 9.36 202.040-81.46 247.94-44 22.24-94.020 26-140.86 10.62-36.22-11.9-67.16-34.16-89.62-63.98-52.54 69.94-149.4 94.58-230.28 54-90.96-45.66-127.82-156.78-82.16-247.74 2.46-4.92 5-9.82 7.6-14.72-5.52 0.32-11.040 0.58-16.56 0.78-101.8 3.62-187.38-76.16-191-177.86s76.16-187.38 177.86-191c5.52-0.2 11.040-0.34 16.56-0.4-2.92-4.68-5.8-9.4-8.62-14.16-52-87.46-23.14-200.94 64.32-252.94 42.38-25.18 92.020-32.36 139.8-20.22 47.76 12.14 87.96 42.18 113.14 84.54 2.82 4.74 5.58 9.52 8.3 14.34 2.7-4.8 5.46-9.6 8.28-14.36 25.080-42.44 65.18-72.58 112.92-84.86 15.32-3.94 30.86-5.88 46.28-5.88 32.62 0 64.76 8.7 93.56 25.72 87.62 51.78 116.78 165.16 65.020 252.78-2.8 4.74-5.68 9.46-8.6 14.16 5.52 0.060 11.060 0.18 16.58 0.36 101.7 3.34 181.72 88.82 178.38 190.52zM511.998 370.168c-43.020 0-77.88 34.86-77.88 77.88s34.86 77.88 77.88 77.88 77.88-34.86 77.88-77.88c0-43.020-34.86-77.88-77.88-77.88z" />
<glyph unicode="&#xe92c;" glyph-name="male" d="M638.656 248.302c-25.269 4.021-25.845 73.502-25.845 73.502s74.249 73.504 90.432 172.345c43.531 0 70.421 105.081 26.88 142.053 1.824 38.919 55.957 305.513-218.123 305.513-274.082 0-219.943-266.594-218.13-305.513-43.536-36.971-16.651-142.053 26.882-142.053 16.181-98.841 90.432-172.345 90.432-172.345s-0.576-69.481-25.845-73.502c-81.394-12.951-385.339-147.013-385.339-294.016h1024c0 147.003-303.947 281.065-385.344 294.016z" />
<glyph unicode="&#xe92d;" glyph-name="newspaper" d="M928 960h-704c-53.024 0-96-42.944-96-96v-64h-32c-53.024 0-96-42.944-96-96v-640c0-70.688 57.312-128 128-128h768c70.688 0 128 57.312 128 128v800c0 53.056-43.008 96-96 96zM960 64c0-35.264-28.736-64-64-64h-768c-35.296 0-64 28.736-64 64v640c0 17.664 14.336 32 32 32h32v-640c0-17.696 14.304-32 32-32s32 14.304 32 32v768c0 17.664 14.336 32 32 32h704c17.632 0 32-14.336 32-32v-800zM623.936 543.84h256c8.864 0 16 7.168 16 16s-7.136 16-16 16h-256c-8.8 0-16-7.168-16-16s7.2-16 16-16zM623.936 639.84h256c8.864 0 16 7.168 16 16s-7.136 16-16 16h-256c-8.8 0-16-7.168-16-16s7.2-16 16-16zM623.936 735.84h256c8.864 0 16 7.168 16 16s-7.136 16-16 16h-256c-8.8 0-16-7.168-16-16s7.2-16 16-16zM528 95.872h-256c-8.832 0-16-7.2-16-16 0-8.864 7.168-16 16-16h256c8.8 0 16 7.136 16 16 0 8.8-7.168 16-16 16zM528 191.872h-256c-8.832 0-16-7.2-16-16 0-8.864 7.168-16 16-16h256c8.8 0 16 7.136 16 16 0 8.8-7.168 16-16 16zM528 287.872h-256c-8.832 0-16-7.2-16-16 0-8.864 7.168-16 16-16h256c8.8 0 16 7.136 16 16 0 8.8-7.168 16-16 16zM880 95.872h-256c-8.864 0-16-7.2-16-16 0-8.864 7.136-16 16-16h256c8.8 0 16 7.136 16 16 0 8.8-7.2 16-16 16zM880 191.872h-256c-8.864 0-16-7.2-16-16 0-8.864 7.136-16 16-16h256c8.8 0 16 7.136 16 16 0 8.8-7.2 16-16 16zM880 287.872h-256c-8.864 0-16-7.2-16-16 0-8.864 7.136-16 16-16h256c8.8 0 16 7.136 16 16 0 8.8-7.2 16-16 16zM880 479.872h-608c-8.832 0-16-7.168-16-16s7.168-16 16-16h608c8.8 0 16 7.168 16 16s-7.2 16-16 16zM880 383.872h-608c-8.832 0-16-7.2-16-16 0-8.864 7.168-16 16-16h608c8.8 0 16 7.136 16 16 0 8.8-7.2 16-16 16zM288 544h224c17.696 0 32 14.304 32 32v223.872c0 17.696-14.304 32-32 32h-224c-17.696 0-32-14.304-32-32v-223.872c0-17.664 14.304-32 32-32zM320 768h160v-160h-160v160z" />
<glyph unicode="&#xe92e;" glyph-name="question" d="M512 960c-283.927 0-512-228.073-512-512s228.073-512 512-512 512 228.073 512 512-228.073 512-512 512zM558.545 168.727c0-13.964-9.309-23.273-23.273-23.273h-46.545c-13.964 0-23.273 9.309-23.273 23.273v46.545c0 13.964 9.309 23.273 23.273 23.273h46.545c13.964 0 23.273-9.309 23.273-23.273v-46.545zM621.382 375.855c-32.582-27.927-55.855-46.545-62.836-72.145-2.327-11.636-11.636-18.618-23.273-18.618h-46.545c-13.964 0-25.6 11.636-23.273 25.6 9.309 67.491 58.182 104.727 97.745 137.309 41.891 32.582 65.164 53.527 65.164 93.091 0 65.164-51.2 116.364-116.364 116.364s-116.364-51.2-116.364-116.364c0-4.655 0-9.309 0-13.964 2.327-11.636-4.655-23.273-16.291-25.6l-44.218-13.964c-13.964-4.655-27.927 4.655-30.255 18.618-2.327 11.636-2.327 23.273-2.327 34.909 0 116.364 93.091 209.455 209.455 209.455s209.455-93.091 209.455-209.455c0-86.109-55.855-130.327-100.073-165.236z" />
<glyph unicode="&#xe92f;" glyph-name="services" d="M512.293 368.567c163.021 0 295.643 132.623 295.643 295.643 0 163.226-132.623 295.79-295.643 295.79-163.109 0-295.79-132.564-295.79-295.76-0.029-163.050 132.681-295.673 295.79-295.673zM640.995 853.592c9.713-67.555 60.328-163.313 111.967-210.681-10.942-123.377-114.6-220.511-240.699-220.511-96.461 0-179.668 56.905-218.492 138.708 42.247-52.312 111.938-88.093 191.868-92.657 4.272-0.527 8.631-0.907 13.224-0.907 1.346 0 2.633 0.117 3.95 0.176 0.088 0 0.146 0 0.234 0 26.975 1.083 48.245 11.878 48.245 25.249 0 14.043-23.464 25.483-52.429 25.483s-52.429-11.44-52.429-25.483c0-1.258 0.41-2.399 0.731-3.657-97.836 20.158-171.418 91.78-176.655 178.293 0.439 31.013 6.671 60.709 17.788 87.83 66.589 5.998 340.231 60.855 352.695 98.158zM734.969 419.269c-58.719-53.307-136.104-86.104-221.184-86.689v0.176c-0.673 0-1.17-0.176-1.814-0.176-0.527 0-1.083 0.176-1.668 0.176v-0.176c-85.226 0.585-162.67 33.382-221.184 86.689-107.257-20.012-188.445-113.781-188.445-226.801v-256.468h822.623v256.468c0.059 113.020-81.218 206.789-188.328 226.801z" />
<glyph unicode="&#xe930;" glyph-name="sort" d="M249.041-21.203v876.459l154.029-154.029c5.023-5.023 11.51-7.534 18.207-7.534s13.185 2.511 18.207 7.534c10.045 10.045 10.045 26.16 0 36.205l-197.768 197.768c-9.627 9.627-26.578 9.627-36.205 0l-197.978-197.768c-10.045-10.045-10.045-26.16 0-36.205s26.16-10.045 36.205 0l154.029 154.029v-876.459c0-14.231 11.51-25.741 25.741-25.741 14.022 0.209 25.532 11.72 25.532 25.741zM782.283-39.2c5.023-5.023 11.51-7.534 18.207-7.534s13.185 2.511 18.207 7.534l197.768 197.768c10.045 10.045 10.045 26.16 0 36.205s-26.16 10.045-36.205 0l-154.029-154.029v876.459c0 14.231-11.51 25.741-25.741 25.741s-25.741-11.51-25.741-25.741v-876.459l-153.82 154.029c-10.045 10.045-26.16 10.045-36.205 0s-10.045-26.16 0-36.205l197.559-197.768z" />
<glyph unicode="&#xe931;" glyph-name="filter" d="M1019.98 881.548c-8.148 19.685-27.13 32.376-48.401 32.376h-919.157c-21.271 0-40.253-12.691-48.401-32.376-8.13-19.667-3.677-42.11 11.357-57.162l363.722-364.317v-455.838c0-12.276 9.915-22.155 22.155-22.155 12.258 0 22.155 9.897 22.155 22.155v465.032c0 5.895-2.343 11.537-6.49 15.683l-370.212 370.825c-3.317 3.335-2.524 6.94-1.767 8.779 0.793 1.893 2.758 4.975 7.481 4.975h919.175c4.687 0 6.67-3.119 7.463-4.975 0.757-1.857 1.55-5.462-1.785-8.779l-370.158-370.825c-4.146-4.146-6.49-9.788-6.49-15.683v-331.905c0-12.276 9.915-22.155 22.155-22.155 12.276 0 22.155 9.915 22.155 22.155v322.73l363.722 364.317c14.98 15.034 19.451 37.477 11.321 57.144z" />
<glyph unicode="&#xe932;" glyph-name="exchange" d="M1023.977 928.087l-31.863 31.913-480.114-480.082-480.082 480.082-31.895-31.913 480.082-480.078-480.082-480.082 31.895-31.927 480.082 480.146 480.114-480.146 31.863 31.927-480.082 480.082z" />
<glyph unicode="&#xe933;" glyph-name="leading-brands-2" d="M599.204 693.576c-10.076-9.605-10.076-25.58-0.41-35.656l240.722-245.166-254.566-262.779c-9.708-10.076-9.236-26.030 0.41-35.656 5.038-4.649 11.325-7.168 17.592-7.168 6.717 0 13.005 2.519 18.043 7.557l271.79 280.392c9.667 9.687 9.667 25.58 0 35.287l-257.925 262.799c-10.056 9.667-25.989 10.056-35.656 0.389v0zM762.716 399.319l-271.79-279.962c-4.628-4.649-10.936-7.168-17.613-7.168h-0.41c-6.697 0-12.984 2.13-17.613 6.676l-303.247 294.728c-5.038 4.608-7.557 11.366-7.557 18.043l1.659 276.644c0 13.844 11.325 24.781 25.17 24.781l281.436 0.41c6.287 0 12.984-2.519 17.613-7.107l291.922-291.758c10.076-9.646 10.076-25.211 0.43-35.287v0zM442.266 683.971l-245.801-0.86-1.679-240.927 277.258-269.537 236.995 244.326-266.772 266.998zM319.386 557.609c-5.14 0-9.277 4.137-9.277 9.216 0 5.1 4.137 9.277 9.277 9.277 5.1 0 9.216-4.178 9.216-9.277 0-5.079-4.116-9.216-9.216-9.216v0zM319.386 532.439c-18.883 0-34.406 15.503-34.406 34.386s15.503 34.447 34.406 34.447c18.821 0 33.935-15.565 34.406-34.447 0-18.883-15.565-34.386-34.406-34.386v0zM319.386 582.799c-8.806 0-15.954-7.148-15.954-15.974 0-8.806 7.148-15.954 15.954-15.954s15.913 7.148 15.913 15.954c0 8.806-7.107 15.974-15.913 15.974v0z" />
<glyph unicode="&#xe934;" glyph-name="life-time-exchange-2" d="M799.683 742.38c-73.155 73.114-170.394 113.459-273.818 113.459-105.308 0-203.817-41.554-277.279-116.941-8.028-8.212-7.823-21.402 0.348-29.553 8.151-8.008 21.361-7.803 29.512 0.348 65.659 67.236 153.436 104.243 247.419 104.243 190.587 0.205 345.539-154.808 345.539-345.436s-154.952-345.641-345.539-345.641c-190.566 0-345.375 155.013-345.375 345.641v4.321l34.202-34.406c4.014-4.035 9.421-6.103 14.807-6.103 5.407 0 10.588 2.089 14.766 6.103 8.151 8.151 8.151 21.361 0 29.512l-69.857 70.062c-8.151 8.151-21.34 8.151-29.491 0l-70.062-70.062c-8.151-8.151-8.151-21.34 0-29.512s21.402-8.151 29.553 0l34.406 34.406v-4.321c0-103.383 40.305-200.745 113.459-273.859 73.134-73.196 170.435-113.48 273.777-113.48 103.404 0 200.724 40.284 273.838 113.48 72.97 73.114 113.234 170.476 113.234 273.859-0.020 103.383-40.325 200.684-113.439 273.879v0zM696.033 539.116l-56.996-57.057c-1.085-1.065-2.478-1.577-4.137-1.577-1.516 0-2.867 0.553-3.973 1.679-1.167 1.167-1.72 2.458-1.72 4.035v34.181h-45.568c-5.755 0-10.875-0.901-15.524-2.662s-8.724-4.424-12.288-8.008c-3.604-3.584-6.595-7.25-9.114-10.977-2.478-3.727-5.161-8.315-8.049-13.804-3.789-7.352-8.397-17.531-13.906-30.474-3.42-7.864-6.41-14.459-8.806-19.763-2.417-5.366-5.632-11.571-9.626-18.719-3.973-7.148-7.762-13.087-11.387-17.797-3.645-4.731-8.069-9.687-13.21-14.766-5.202-5.161-10.527-9.236-16.077-12.247-5.489-3.031-11.817-5.53-18.924-7.455-7.168-1.987-14.766-2.99-22.815-2.99h-39.936c-1.659 0-3.011 0.553-4.076 1.597-1.065 1.085-1.597 2.437-1.597 4.076v34.243c0 1.679 0.532 3.011 1.597 4.076 1.065 1.085 2.417 1.618 4.076 1.618h39.936c5.693 0 10.875 0.901 15.524 2.662 4.628 1.761 8.704 4.444 12.288 8.049 3.523 3.564 6.595 7.209 9.052 10.957 2.519 3.748 5.202 8.315 8.028 13.824 3.83 7.352 8.458 17.51 13.906 30.474 3.482 7.844 6.41 14.397 8.806 19.784 2.478 5.345 5.632 11.571 9.626 18.678s7.823 13.046 11.448 17.838c3.625 4.731 8.008 9.667 13.21 14.766 5.14 5.12 10.465 9.216 16.015 12.247 5.53 3.011 11.817 5.489 18.985 7.455 7.107 1.966 14.705 2.97 22.815 2.97h45.568v34.202c0 1.659 0.553 3.011 1.618 4.076 1.065 1.106 2.417 1.618 4.076 1.618 1.454 0 2.867-0.614 4.28-1.761l56.852-56.852c1.065-1.065 1.597-2.417 1.597-4.076 0.020-1.72-0.512-3.072-1.577-4.116v0zM472.637 477.266c-2.621 5.345-4.833 9.667-6.595 12.882-1.823 3.277-4.178 7.066-7.25 11.346-3.011 4.28-6.042 7.66-9.052 10.076s-6.758 4.526-11.244 6.246c-4.424 1.72-9.257 2.56-14.5 2.56h-39.936c-1.659 0-3.011 0.553-4.076 1.618s-1.597 2.417-1.597 4.076v34.243c0 1.659 0.532 3.011 1.597 4.076s2.417 1.618 4.076 1.618h39.936c29.655 0 54.047-13.394 73.011-40.1-7.107-10.916-15.278-27.136-24.371-48.64v0zM696.033 379.433l-56.996-56.996c-1.085-1.044-2.437-1.597-4.137-1.597-1.516 0-2.867 0.553-3.973 1.659-1.126 1.188-1.72 2.458-1.72 4.014v34.202c-3.768 0-8.806 0-15.073-0.041-6.328-0.123-11.162-0.164-14.479-0.205-3.297-0.082-7.619 0-13.005 0.205-5.325 0.143-9.564 0.43-12.636 0.84-3.092 0.41-6.881 1.085-11.407 1.884-4.506 0.84-8.274 1.966-11.244 3.318-2.99 1.352-6.41 3.072-10.342 5.079-3.891 2.028-7.373 4.383-10.547 7.107-3.052 2.724-6.349 5.898-9.789 9.523-3.482 3.625-6.799 7.782-9.953 12.37 7.004 11.080 15.053 27.238 24.228 48.64 2.621-5.345 4.772-9.667 6.574-12.882 1.761-3.256 4.198-7.045 7.229-11.325s6.042-7.639 9.052-10.076c2.99-2.396 6.799-4.526 11.244-6.246 4.485-1.72 9.318-2.56 14.561-2.56h45.568v34.181c0 1.659 0.553 3.011 1.618 4.076 1.065 1.106 2.417 1.618 4.076 1.618 1.454 0 2.867-0.614 4.28-1.761l56.852-56.852c1.065-1.065 1.597-2.417 1.597-4.055 0.020-1.679-0.512-3.031-1.577-4.116v0z" />
<glyph unicode="&#xe935;" glyph-name="pencil" d="M961.302 652.667l-13.849-13.826-275.652 275.652 13.826 13.826c42.257 42.257 110.998 42.257 153.14-0.023l122.489-122.535c42.234-42.211 42.279-110.906 0.046-153.094zM582.962 824.188l274.782-274.828-246.306-246.237c-0.847-0.893-1.877-1.465-2.77-2.335-0.549-0.801-0.824-1.625-1.534-2.381-22.41-22.364-48.139-35.206-72.564-36.19l-241.796-43.973c-11.4 0-21.769 4.67-29.255 12.155-7.554 7.508-12.201 17.878-12.201 29.323l0.275 2.838 41.593 235.433c1.259 29.094 20.51 58.326 38.319 76.112 1.465 1.442 3.136 2.449 4.876 3.273 0.183 0.137 0.275 0.366 0.412 0.481l246.168 246.329zM546.794 297.538l-216.937 216.96c-2.564-6.615-4.189-12.956-4.303-18.587l-0.252-2.381-16.687-94.333 119.353-119.307 104.474 14.856c4.601 0.046 9.477 1.213 14.353 2.793zM615.696 856.991l274.782-274.782 26.416 26.37-274.828 274.828-26.37-26.416zM305.891 66.776l-150.897 64.529 34.474 13.826c17.626 7.119 26.164 27.103 19.091 44.637-7.073 17.649-27.011 26.187-44.614 19.091l-111.41-44.614c-12.865-5.219-21.426-17.649-21.495-31.475-0.183-13.872 8.103-26.485 20.831-31.956l150.897-64.529-85.177-34.084c-17.649-7.142-26.21-27.126-19.091-44.66 5.311-13.414 18.244-21.517 31.887-21.517 4.303 0 8.584 0.778 12.819 2.426l162.113 65.010c12.865 5.219 21.449 17.626 21.517 31.521 0.069 13.735-8.149 26.347-20.945 31.795z" />
<glyph unicode="&#xe936;" glyph-name="settings2" d="M65.108 170.814l-65.108-234.814 234.814 65.108zM997.748 891.322l-42.426 42.426c-35.002 35.002-92.278 35.002-127.28 0l-30.3-30.3 169.706-169.706 30.3 30.3c35.002 35.002 35.002 92.278 0 127.28zM712.892 818.605l42.426 42.426 169.703-169.703-42.426-42.426-169.703 169.703zM213.588 107.176l562.917 562.917 63.639-63.639-562.917-562.917-63.639 63.639zM107.543 213.254l562.917 562.917 63.639-63.639-562.917-562.917-63.639 63.639zM966.894 268.866c-44.15 44.15-104.202 62.698-161.72 55.656l-81.046 81.048-169.706-169.706 81.046-81.048c-5.892-48.118 6.14-98.004 36.074-138.876l178.68 178.68 152.438-152.438c37.496 73.288 25.582 165.336-35.766 226.684zM807.796 67.34l-93.816-93.816c59.9-43.87 139.162-49.28 203.828-16.196l-110.012 110.012zM106.192 938.67l110.012-110.012 93.816 93.818c-59.9 43.87-139.16 49.28-203.828 16.194zM388.532 741.184c5.892 48.118-6.14 98.004-36.074 138.876l-178.68-178.68-152.438 152.438c-37.496-73.288-25.582-165.336 35.764-226.684 44.152-44.15 104.204-62.698 161.722-55.656l81.046-81.046 169.706 169.706-81.046 81.046z" />
<glyph unicode="&#xe937;" glyph-name="tag" d="M765.132 816.887c-64.717 0-117.667-52.95-117.667-117.667s52.95-117.667 117.667-117.667 117.667 52.95 117.667 117.667-52.95 117.667-117.667 117.667zM765.132 628.619c-38.83 0-70.6 31.77-70.6 70.6s31.77 70.6 70.6 70.6 70.6-31.77 70.6-70.6-31.77-70.6-70.6-70.6zM906.333 956.911h-317.702c-31.77 0-61.187-11.767-82.367-34.124l-471.846-469.493c-45.89-45.89-45.89-120.021 0-165.911l315.348-314.172c22.357-22.357 51.774-34.124 83.544-34.124s61.187 11.767 83.544 34.124l471.846 471.846c22.357 21.18 35.3 50.597 35.3 81.19v312.995c0 64.717-52.95 117.667-117.667 117.667zM976.933 526.249c0-17.65-7.060-35.3-21.18-47.067l-473.023-473.023c-12.943-12.943-30.594-20.003-49.42-20.003s-36.477 7.060-49.42 20.003l-316.525 314.172c-27.063 27.063-27.063 71.777 0 100.017l471.846 469.493c12.943 12.943 30.594 20.003 49.42 20.003h317.702c38.83 0 70.6-31.77 70.6-70.6v-312.995z" />
<glyph unicode="&#xe938;" glyph-name="bis-halmark-2" d="M935.26 404.009c-1.331 2.396-39.629 40.428-39.629 40.428l-144.65 144.056-121.856 121.016c-34.202 36.065-72.192 67.277-72.192 67.277-44.216 34.222-83.845-0.819-83.845-0.819-1.638-0.573-29.082-24.453-29.082-24.453l-229.622-228.454-120.75-121.59c-29.573-38.482-14.397-70.963-14.397-70.963 20.931-45.875 77.64-46.346 77.64-46.346h247.255l112.333 113.684 111.022-113.684h239.636c27.136 0 52.122 11.592 52.122 11.592 32.85 20.050 36.086 45.117 36.086 45.117 4.608 37.458-20.070 63.14-20.070 63.14zM919.163 346.808c-0.758-2.191-4.403-8.172-17.674-16.732-5.734-2.601-19.21-4.956-31.846-4.956h-0.594c-0.492 0-1.393 0-1.925 0 0 0-197.304 0-224.236 0-17.531 0-100.27 96.911-100.27 96.911-6.861 7.066-16.261 5.489-26.112 5.489-0.061 0-0.143 0-0.205 0-9.728 0-19.046 1.843-25.887-5.1 0 0-84.050-97.3-101.56-97.3-26.194 0-220.058 0-230.932 0-0.307 0-33.71-1.208-45.015 22.036-0.328 0.922-0.983 2.191-0.983 6.062 0 8.335 3.092 16.323 9.298 24.883 3.195 3.195 119.132 119.542 119.132 119.542l-0.143-0.369c0 0 228.147 226.877 229.13 227.86 10.076 8.704 21.996 18.821 24.596 20.849 0 0-4.076-2.089-6.779-3.461 3.133 1.659 7.619 4.076 9.687 5.591 0.184 0.143 0.369 0.266 0.492 0.41-0.020 0-0.369-0.328-0.451-0.43 0.676 0.635 9.134 7.107 19.21 7.107 6.001 0 12.042-2.437 18.371-7.373-0.123 0.102-0.43 0.369-0.492 0.43 0.246-0.184 0.532-0.451 0.532-0.451h-0.041c4.813-3.994 38.154-31.99 68.055-63.508 0.266-0.287 0.492-0.532 0.758-0.819l121.897-121.016 144.609-143.974c15.442-15.36 33.997-34.038 37.089-37.56 0 0-1.761 2.601-2.724 4.035 1.208-1.741 3.113-4.506 4.239-5.857 0.041-0.041 0.082-0.123 0.164-0.164 0.041-0.082 0.164-0.123 0.287-0.266 1.925-2.437 10.527-13.844 10.527-28.611 0-1.085-0.123-2.232-0.205-3.256zM499.016 634.266c0 0 14.438 18.432 32.85 0l42.885-42.988 82.493-82.534c0 0 8.499-8.765 9.585-11.366 0 0 6.001-7.905 0.84-17.777 0 0-6.881-8.315-18.166-8.049h-269.476c0 0-20.091 1.393-19.026 17.367 0 0 0.43 8.458 9.318 16.507l63.816 63.754 64.881 65.085zM50.012 301.957c0 0 52.859-55.276 85.361-60.969 0 0 19.436-2.99 31.969-2.99h698.184c0 0 33.731-2.355 59.126 17.347 0 0 26.89 18.78 54.968 46.592 0 0-26.583-55.869-48.64-80.65 0 0-16.138-24.187-59.126-25.948h-703.652c0 0-39.076-5.714-66.826 22.651 0.020 0.041-31.068 37.642-51.364 83.968v0z" />
<glyph unicode="&#xe939;" d="M899.154 116.716c-2.478-4.997-8.315-8.315-14.111-8.315h-132.813l-60.559-107.95c-2.478-4.956-8.274-8.233-14.111-8.233-5.796 0-10.793 3.277-14.111 8.233l-118.641 205.169-118.62-202.65c-2.519-4.997-8.315-8.274-14.090-8.274-5.837 0-10.834 3.277-14.152 8.274l-60.539 105.431h-132.854c-5.796 0-10.772 3.318-14.090 8.315-2.478 4.915-3.338 11.551 0 16.568l123.638 219.218c-14.090 5.775-23.224 19.948-21.565 34.857l10.772 77.251-52.285 56.443c-11.633 14.111-10.772 34.058 0.819 45.67l52.285 54.804-9.114 76.39c-1.659 18.227 9.974 34.038 27.402 37.376l75.489 13.23 37.376 67.277c4.137 7.455 10.772 13.292 19.087 15.77 8.274 2.56 17.408 1.7 24.863-2.437l68.055-33.239 69.734 32.379h0.799c16.63 6.656 34.857 0 42.291-15.77l36.516-67.277 75.53-14.909c16.65-3.318 28.242-19.927 26.563-36.557l-10.752-77.21 52.285-56.463c11.592-14.152 10.752-34.038-0.799-45.67l-52.285-54.804 9.073-76.39c0.819-14.93-6.636-28.262-19.087-34.038l122.798-215.9c3.318-4.997 3.318-11.653-0.799-16.568v0zM232.755 141.599h114.524c5.837 0 10.834-3.338 14.090-8.315l51.466-88.842 112.046 195.154-16.63 29.041-34.038-15.79h-0.819c-16.63-6.595-34.836 0-42.291 15.79l-36.516 67.236-47.35 8.315-114.483-202.588zM816.169 536.822l-52.285 56.443c-6.636 6.656-9.953 17.428-8.315 27.402l10.834 76.39-75.551 14.95c-9.073 0.799-17.428 7.455-22.405 15.77l-36.516 68.956c0 0 0 0-0.799 0l-68.854-31.58c-9.093-4.997-20.787-4.997-29.86 0l-68.096 33.26-37.376-67.277c-4.977-9.114-14.090-14.95-23.224-16.63l-75.53-13.251c-0.819-0.86-0.819-1.659-0.819-1.659l9.114-75.592c1.659-9.974-1.659-19.907-9.114-27.402l-52.265-54.804 51.425-56.443c6.636-6.656 9.974-17.428 8.315-27.402l-10.772-76.39 76.349-14.090c9.974-0.881 18.227-7.496 23.224-15.79l36.516-68.915c0 0 0 0 0.86 0l68.854 32.338c9.155 4.997 20.767 4.997 29.921 0l68.035-33.137 37.315 67.195c4.956 9.093 14.090 14.93 23.245 16.65l74.711 12.411-9.196 76.39c-1.638 9.974 1.679 19.948 9.196 27.382l53.064 54.825zM743.977 341.729l-49.828-9.114-37.315-67.236c-5.837-10.793-17.408-16.65-29.041-16.65-4.997 0-9.974 0.84-14.95 3.318l-68.035 33.178-5.796-2.458 18.289-32.399c1.659-1.638 2.519-3.318 3.318-5.755l117.002-202.65 51.487 91.32c2.519 4.977 8.274 8.315 14.090 8.315h114.524l-113.746 200.131z" />
<glyph unicode="&#xe93a;" d="M703.406 575.406l37.888-40.899-38.482-39.69c-5.407-5.386-7.803-12.595-6.554-19.845l6.554-55.296-54.129-8.991c-6.554-1.229-13.21-5.448-16.794-12.042l-26.993-48.722-49.275 24.084c-6.595 3.604-14.991 3.604-21.688 0l-49.869-23.47c-0.614 0-0.614 0-0.614 0l-26.44 49.91c-3.625 6.001-9.626 10.834-16.814 11.448l-55.296 10.24 7.803 55.316c1.208 7.209-1.208 15.053-5.98 19.845l-37.274 40.899 37.868 39.69c5.386 5.386 7.803 12.636 6.595 19.845l-6.595 54.682c0 0 0 0.594 0.614 1.208l54.641 9.626c6.656 1.208 13.251 5.448 16.876 12.022l26.993 48.701 49.295-24.023c6.574-3.625 15.012-3.625 21.627 0l49.93 22.815c0.594 0 0.594 0 0.594 0l26.44-49.91c3.604-6.001 9.646-10.834 16.241-11.448l54.682-10.772-7.803-55.357c-1.249-7.229 1.147-15.032 5.96-19.866v0zM544.768 416.686c-66.13 0-120.238 54.17-120.238 120.259 0 66.13 54.088 120.259 120.238 120.259 66.109 0 120.156-54.149 120.156-120.259 0-66.15-54.108-120.259-120.156-120.259v0zM544.768 633.119c-52.9 0-96.154-43.254-96.154-96.195s43.254-96.195 96.154-96.195c52.879 0 96.113 43.254 96.113 96.195s-43.233 96.195-96.113 96.195v0z" />
<glyph unicode="&#xe93b;" d="M617.124 569.119l-77.804-77.804c-4.69-4.69-12.247-4.69-16.937 0-4.649 4.628-4.649 12.186 0 16.876l77.865 77.865c4.669 4.649 12.268 4.649 16.855 0 4.69-4.71 4.69-12.268 0.020-16.937v0zM532.46 484.454c-4.69-4.69-12.288-4.69-16.978 0l-50.872 50.872c-4.69 4.69-4.69 12.288 0 16.978s12.288 4.69 16.978 0l50.872-50.872c4.71-4.69 4.71-12.308 0-16.978v0z" />
<glyph unicode="&#xe93c;" glyph-name="easy-return-2" d="M856.719 596.541l-140.718 178.524c-3.523 4.485-8.724 7.045-14.397 7.045h-369.459c-5.693 0-10.875-2.56-14.397-7.045l-140.718-178.524c-2.621-3.236-3.973-7.209-3.973-11.387v-501.862c0-10.117 8.253-18.35 18.371-18.35h650.732c10.117 0 18.35 8.233 18.35 18.35v501.862c0.164 4.178-1.167 8.151-3.789 11.387v0zM806.728 600.515h-271.401v144.794h157.389l114.012-144.794zM341.053 745.308h157.389v-144.794h-271.401l114.012 144.794zM209.859 101.724v461.967h613.868v-461.988l-613.868 0.020zM618.435 428.728l-143.565-143.688-59.679 59.679c-8.356 8.417-21.955 8.417-30.372 0-8.356-8.397-8.356-21.955 0-30.351l74.834-74.875c4.137-4.116 9.667-6.246 15.217-6.246s10.875 2.13 15.155 6.246l158.597 158.679c8.417 8.397 8.417 21.955 0 30.372-8.212 8.622-21.791 8.622-30.188 0.184v0z" />
<glyph unicode="&#xe93d;" glyph-name="free-insured-shipping-2" d="M786.985 153.928c-21.811 0-42.373 8.52-58.245 24.003-15.811 15.708-24.371 36.086-24.371 57.958 0 21.811 8.765 42.25 24.371 57.917 15.667 15.442 36.372 24.044 58.245 24.044 44.79 0 81.183-36.803 81.183-81.961 0-45.199-36.413-81.961-81.183-81.961v0zM786.985 281.395c-25.129 0-46.244-20.808-46.244-45.568s21.115-45.568 46.244-45.568c24.781 0 44.79 20.398 44.79 45.568-0.020 25.149-20.009 45.568-44.79 45.568v0zM850.678 409.825h-148.152c-9.994 0-18.166 8.172-18.166 18.227v149.34c0 10.035 8.151 18.207 18.166 18.207h93.409c4.547 0 8.95-1.618 12.206-4.731l54.804-49.336c3.809-3.461 6.001-8.376 6.001-13.517v-99.983c-0.041-10.035-8.274-18.207-18.268-18.207v0zM832.471 519.987l-43.725 39.342h-68.035v-113.070h111.759v73.728zM342.508 153.928c-21.832 0-42.373 8.52-58.225 24.003-15.831 15.708-24.412 36.086-24.412 57.958 0 21.811 8.765 42.25 24.412 57.917 15.647 15.442 36.372 24.044 58.225 24.044 44.81 0 81.183-36.803 81.183-81.961 0-45.199-36.372-81.961-81.183-81.961v0zM342.508 281.395c-25.088 0-46.203-20.808-46.203-45.568s21.135-45.568 46.203-45.568c24.76 0 44.81 20.398 44.81 45.568 0 25.149-20.050 45.568-44.81 45.568v0zM221.123 258.99h-54.784c-9.994 0-18.207 8.172-18.207 18.248v66.642c0 10.035 8.212 18.207 18.207 18.207 10.035 0 18.207-8.131 18.207-18.207v-48.435h36.577c9.994 0 18.207-8.192 18.207-18.207 0-10.056-8.212-18.248-18.207-18.248v0zM295.178 376.484h-220.774c-9.994 0-18.166 8.192-18.166 18.248s8.172 18.207 18.166 18.207h220.774c10.035 0 18.207-8.151 18.207-18.207 0-10.22-8.172-18.248-18.207-18.248v0zM332.145 459.162l-220.754 1.29c-10.035 0-18.227 8.172-18.063 18.371 0 10.035 8.212 18.063 18.207 18.063 0 0 0 0 0.205 0l220.774-1.311c9.994 0 18.207-8.172 18.022-18.35-0.164-10.035-8.376-18.063-18.391-18.063v0zM369.295 543.15h-220.795c-10.035 0-18.207 8.212-18.207 18.207 0 10.035 8.172 18.227 18.207 18.227h220.774c9.994 0 18.166-8.172 18.166-18.227 0.020-9.994-8.151-18.207-18.145-18.207v0zM948.593 277.361c0-9.953-8.172-18.002-18.207-18.002h-36.966c-10.035 0-18.207 8.151-18.207 18.207 0 9.994 8.131 18.248 18.207 18.248h18.924l1.29 249.364-118.682 98.365h-146.678v-348.119h36.557c10.035 0 18.248-8.172 18.248-18.207s-8.151-18.268-18.248-18.268h-222.208c-9.994 0-18.166 8.192-18.166 18.268 0 9.974 8.172 18.207 18.166 18.207h149.279v431.882h-427.356v-115.118c0-10.035-8.172-18.207-18.207-18.207-9.994 0-18.207 8.172-18.207 18.207v133.325c0 10.035 8.212 18.207 18.207 18.207h463.585c9.974 0 18.207-8.172 18.207-18.207v-65.577h153.231c4.383 0 8.356-1.475 11.633-4.198l130.314-107.991c4.198-3.461 6.533-8.765 6.758-14.213l-1.475-276.173zM786.985 153.928c-21.811 0-42.373 8.52-58.245 24.003-15.811 15.708-24.371 36.086-24.371 57.958 0 21.811 8.765 42.25 24.371 57.917 15.667 15.442 36.372 24.044 58.245 24.044 44.79 0 81.183-36.803 81.183-81.961 0-45.199-36.413-81.961-81.183-81.961v0zM786.985 281.395c-25.129 0-46.244-20.808-46.244-45.568s21.115-45.568 46.244-45.568c24.781 0 44.79 20.398 44.79 45.568-0.020 25.149-20.009 45.568-44.79 45.568v0zM850.678 409.825h-148.152c-9.994 0-18.166 8.172-18.166 18.227v149.34c0 10.035 8.151 18.207 18.166 18.207h93.409c4.547 0 8.95-1.618 12.206-4.731l54.804-49.336c3.809-3.461 6.001-8.376 6.001-13.517v-99.983c-0.041-10.035-8.274-18.207-18.268-18.207v0zM832.471 519.987l-43.725 39.342h-68.035v-113.070h111.759v73.728zM342.508 153.928c-21.832 0-42.373 8.52-58.225 24.003-15.831 15.708-24.412 36.086-24.412 57.958 0 21.811 8.765 42.25 24.412 57.917 15.647 15.442 36.372 24.044 58.225 24.044 44.81 0 81.183-36.803 81.183-81.961 0-45.199-36.372-81.961-81.183-81.961v0zM342.508 281.395c-25.088 0-46.203-20.808-46.203-45.568s21.135-45.568 46.203-45.568c24.76 0 44.81 20.398 44.81 45.568 0 25.149-20.050 45.568-44.81 45.568v0zM295.178 376.484h-220.774c-9.994 0-18.166 8.192-18.166 18.248s8.172 18.207 18.166 18.207h220.774c10.035 0 18.207-8.151 18.207-18.207 0-10.22-8.172-18.248-18.207-18.248v0zM332.145 459.162l-220.754 1.29c-10.035 0-18.227 8.172-18.063 18.371 0 10.035 8.212 18.063 18.207 18.063 0 0 0 0 0.205 0l220.774-1.311c9.994 0 18.207-8.172 18.022-18.35-0.164-10.035-8.376-18.063-18.391-18.063v0zM369.295 543.15h-220.795c-10.035 0-18.207 8.212-18.207 18.207 0 10.035 8.172 18.227 18.207 18.227h220.774c9.994 0 18.166-8.172 18.166-18.227 0.020-9.994-8.151-18.207-18.145-18.207v0z" />
<glyph unicode="&#xe93e;" glyph-name="edit" d="M975.219 911.237c-65.054 65.017-170.864 65.017-235.918 0l-668.371-668.371c-0.315-0.315-0.5-0.704-0.778-1.038-0.389-0.445-0.723-0.927-1.075-1.409-0.982-1.372-1.742-2.836-2.317-4.43-0.167-0.482-0.408-0.908-0.537-1.39-0.056-0.185-0.167-0.371-0.222-0.556l-65.517-275.229c-0.297-1.242-0.371-2.502-0.408-3.744 0-0.241-0.074-0.463-0.074-0.704 0.019-2.113 0.482-4.17 1.205-6.153 0.167-0.463 0.352-0.871 0.556-1.316 0.908-1.983 2.039-3.892 3.633-5.486 1.761-1.761 3.837-3.114 6.079-4.040s4.633-1.39 7.024-1.39c1.427 0 2.873 0.167 4.281 0.5l275.229 65.517c0.5 0.111 0.945 0.389 1.427 0.556 0.63 0.204 1.223 0.445 1.835 0.723 1.334 0.612 2.576 1.372 3.725 2.28 0.445 0.352 0.908 0.612 1.334 1.001 0.148 0.148 0.334 0.222 0.482 0.371l668.389 668.389c65.054 65.054 65.054 170.883 0.019 235.918zM949.012 885.030c46.112-46.131 50.042-118.562 12.047-169.345l-181.392 181.392c50.802 37.995 123.232 34.065 169.345-12.047zM857.269 609.801l-183.486 183.486 26.207 26.207 183.486-183.486-26.207-26.207zM91.947 27.965c-7.247 7.247-18.96 7.247-26.207 0l-14.030-14.030 47.336 198.832 81.957 9.1-10.546-94.931c-0.074-0.704 0.185-1.353 0.185-2.039 0-0.704-0.259-1.334-0.185-2.039 0.074-0.612 0.389-1.112 0.519-1.705 0.222-1.075 0.537-2.057 0.927-3.058 0.482-1.205 1.056-2.298 1.761-3.355 0.575-0.853 1.149-1.612 1.853-2.354 0.89-0.945 1.853-1.742 2.91-2.484 0.834-0.575 1.631-1.112 2.558-1.557 1.223-0.575 2.502-0.908 3.837-1.223 0.704-0.167 1.279-0.556 2.002-0.649 0.667-0.074 1.334-0.111 2.020-0.111 0 0 0.019 0 0.019 0s0.019 0 0.019 0h0.019c0 0 0.019 0 0.019 0 0.667 0 1.353 0.037 2.020 0.111l94.931 10.546-9.1-81.957-198.851-47.336 14.030 14.030c7.228 7.228 7.228 18.96 0 26.207zM324.548 129.513l414.752 414.771c7.247 7.247 7.247 18.96 0 26.207s-18.96 7.247-26.207 0l-414.752-414.771-88.462-9.823 9.823 88.462 414.79 414.752c7.247 7.247 7.247 18.96 0 26.207s-18.96 7.247-26.207 0l-414.79-414.752-58.994-6.561 513.075 513.075 183.486-183.486-513.075-513.075 6.561 58.994zM909.683 662.215l-183.486 183.486 26.226 26.226 183.486-183.486-26.226-26.226z" />
<glyph unicode="&#xe93f;" glyph-name="delivery" d="M1018.946 358.168l-151.468 172.916c-3.872 4.42-9.464 6.958-15.344 6.958h-131.738v122.358c0 11.266-9.132 20.398-20.398 20.398h-293.072c-20.856 91.668-103.012 160.296-200.902 160.296-113.6 0-206.024-92.422-206.024-206.024 0-44.46 14.158-85.678 38.202-119.378v-303.372h-17.804c-11.266 0-20.398-9.132-20.398-20.398s9.132-20.398 20.398-20.398h17.804v-23.836c0-11.266 9.132-20.398 20.398-20.398h40.198c9.322-41.374 46.344-72.382 90.494-72.382s81.172 31.008 90.496 72.382l478.502-0.002c9.322-41.374 46.344-72.382 90.494-72.382s81.172 31.008 90.496 72.382h64.324c11.266 0 20.398 9.132 20.398 20.398v197.042c-0.002 4.944-1.798 9.722-5.056 13.44zM411.984 640.002h267.61v-341.224h-600.596v174.196c35.022-27.506 79.142-43.926 127.026-43.926 113.6 0 206.024 92.424 206.024 206.024 0 1.646-0.024 3.292-0.064 4.93zM40.796 635.068c0 91.108 74.12 165.228 165.228 165.228s165.228-74.12 165.228-165.228-74.12-165.228-165.228-165.228-165.228 74.122-165.228 165.228zM189.292 95.702c-28.664 0-51.984 23.32-51.984 51.984s23.32 51.986 51.984 51.986c28.664 0 51.986-23.322 51.986-51.986-0.002-28.664-23.32-51.984-51.986-51.984zM679.598 168.084h-399.812c-9.322 41.376-46.344 72.384-90.496 72.384-44.15 0-81.172-31.008-90.494-72.384h-19.798v89.896h600.598v-89.896zM871.192 464.93l88.598-101.144h-88.598v101.144zM848.782 95.702c-28.664 0-51.984 23.32-51.984 51.984s23.32 51.986 51.984 51.986c28.664 0 51.986-23.322 51.986-51.986s-23.322-51.984-51.986-51.984zM983.204 168.084h-43.926c-9.322 41.376-46.344 72.384-90.496 72.384-44.15 0-81.172-31.008-90.494-72.384h-37.894v329.16h110v-153.858c0-11.266 9.132-20.398 20.398-20.398h132.41v-154.904zM630.31 361.73h-171.346c-11.266 0-20.398-9.132-20.398-20.398s9.132-20.398 20.398-20.398h171.346c11.266 0 20.398 9.132 20.398 20.398 0.002 11.266-9.132 20.398-20.398 20.398zM395.73 361.73h-12.24c-11.266 0-20.398-9.132-20.398-20.398s9.132-20.398 20.398-20.398h12.24c11.266 0 20.398 9.132 20.398 20.398s-9.132 20.398-20.398 20.398zM265.324 604.618l-38.902 38.902v113.94c0 11.266-9.132 20.398-20.398 20.398s-20.398-9.132-20.398-20.398v-122.39c0-5.41 2.15-10.598 5.974-14.424l44.876-44.876c3.984-3.984 9.204-5.974 14.424-5.974s10.442 1.99 14.424 5.974c7.966 7.964 7.966 20.88 0 28.848z" />
<glyph unicode="&#xe940;" glyph-name="telephone" d="M873.802 809.907c-96.691 96.691-225.192 149.987-361.907 149.987s-265.216-53.296-361.907-149.987-149.987-225.192-149.987-361.907 53.296-265.216 149.987-361.907 225.192-149.987 361.907-149.987c79.417 0 151.883 14.746 209.392 42.342 54.56 26.332 94.163 64.039 111.648 105.96 20.855 50.347 9.058 102.8-32.23 144.089l-1.475 1.475c0.632 0.843 1.475 1.475 2.107 2.107 29.492 30.966 29.492 71.623-0.421 101.536l-72.887 72.887c-14.325 14.746-31.598 22.751-49.926 22.751s-35.812-7.794-50.557-22.54l-37.918-37.918c-1.896 1.053-3.581 1.896-5.477 2.739-4.634 2.317-8.848 4.424-12.429 6.741-38.55 24.436-73.519 56.456-107.013 97.534-14.746 18.538-24.857 34.337-32.441 49.926 9.48 8.848 18.327 17.906 26.964 26.753 3.581 3.792 7.373 7.373 11.165 11.165 30.966 30.966 30.966 70.991 0 101.958l-36.022 36.022c-4.213 4.213-8.216 8.216-12.218 12.429-8.005 8.216-16.221 16.642-25.068 24.857-14.325 14.114-31.388 21.487-49.504 21.487s-35.39-7.373-50.136-21.487c-0.211-0.211-0.211-0.211-0.421-0.421l-45.291-45.291c-18.116-18.116-28.649-40.446-30.756-66.146-3.16-40.025 8.426-77.1 17.484-101.326 21.698-58.562 54.139-112.912 102.379-171.053 58.562-69.938 129.132-125.34 209.814-164.312 30.966-14.746 72.466-32.020 119.231-35.18 2.949-0.211 5.898-0.211 8.848-0.211 32.652 0 60.248 11.797 81.735 35.18 0.211 0.211 0.632 0.632 0.843 0.843 0.632 0.843 1.475 1.685 2.317 2.528l1.264-1.264c26.964-26.964 34.337-57.72 21.276-89.108-24.225-57.509-118.389-116.493-274.274-116.493-254.473 0-461.337 206.864-461.337 461.337s206.864 461.337 461.337 461.337 461.337-206.864 461.337-461.337c0-41.921-5.688-83.209-16.642-123.023-3.792-13.482 4.213-27.385 17.695-31.177s27.385 4.213 31.177 17.695c12.218 44.238 18.538 90.161 18.538 136.505-0.211 136.716-53.507 265.216-150.198 361.907zM722.972 224.494c-12.007-12.85-25.489-18.538-44.238-18.538-1.896 0-3.792 0-5.688 0.211-37.918 2.528-73.73 17.484-100.483 30.334-73.94 35.812-138.822 86.58-192.75 151.041-44.448 53.507-74.151 103.011-93.953 156.096-11.797 32.020-16.221 56.456-14.535 79.628 1.264 13.693 6.32 24.857 16.221 34.548l45.291 45.080c3.581 3.37 9.058 7.373 14.957 7.373s10.954-3.792 14.114-7.162c0.211-0.211 0.421-0.421 0.632-0.632 8.005-7.373 15.589-15.167 23.593-23.383 4.213-4.213 8.426-8.637 12.639-12.85l36.022-36.022c11.165-11.165 11.165-19.38 0-30.545-3.792-3.792-7.584-7.584-11.375-11.375-11.165-11.165-21.487-21.908-32.862-32.020-0.421-0.211-0.632-0.632-1.053-1.053-15.799-15.799-10.322-32.23-8.637-37.707 0.211-0.632 0.421-1.053 0.632-1.685 9.69-23.383 23.172-45.291 43.816-71.412l0.211-0.211c37.075-45.712 76.047-81.103 119.231-108.488 5.688-3.581 11.375-6.53 16.852-9.269 4.634-2.317 8.848-4.424 12.429-6.741 0.632-0.421 1.475-0.843 2.317-1.264 5.477-2.739 10.954-4.002 16.431-4.002 9.269 0 17.906 3.792 25.279 11.375l45.291 45.291c3.581 3.581 8.848 7.794 14.746 7.794 5.477 0 10.533-4.002 13.693-7.373 0.211-0.211 0.211-0.211 0.421-0.421l72.887-72.887c10.322-10.322 10.322-19.802-0.421-30.966l-0.211-0.211c-4.845-5.266-10.111-10.322-15.799-15.799-8.426-8.216-17.274-16.852-25.7-26.753z" />
<glyph unicode="&#xe941;" glyph-name="share" d="M832.958 309.183c-59.284 0-111.576-28.244-145.74-71.496l-316.881 162.053c4.148 15.472 7.13 31.459 7.13 48.284 0 18.316-3.541 35.56-8.483 52.34l315.483 161.305c33.976-45.209 87.621-74.758 148.536-74.758 103.188 0 186.66 83.472 186.66 186.568 0.002 103.002-83.472 186.522-186.658 186.522-102.955 0-186.52-83.52-186.52-186.52 0-16.872 2.984-32.905 7.178-48.424l-316.835-162.053c-34.21 43.297-86.597 71.634-145.973 71.634-103.095 0-186.52-83.565-186.52-186.613s83.427-186.568 186.52-186.568c61.008 0 114.607 29.642 148.722 74.897l315.342-161.305c-4.941-16.732-8.528-34.117-8.528-52.48 0-103.048 83.565-186.568 186.52-186.568 103.188 0 186.66 83.52 186.66 186.568 0.048 103.141-83.425 186.615-186.613 186.615z" />
<glyph unicode="&#xe942;" glyph-name="placeholder" d="M718.797 226.014c-9.387 1.143-17.852-5.581-18.944-14.95s5.598-17.852 14.95-18.944c179.473-21.129 275.063-78.063 275.063-111.053 0-46.319-181.794-110.933-477.867-110.933s-477.867 64.614-477.867 110.933c0 32.99 95.59 89.924 275.063 111.053 9.353 1.092 16.043 9.591 14.95 18.944-1.109 9.37-9.574 16.128-18.944 14.95-179.695-21.163-305.203-80.759-305.203-144.947 0-72.090 175.872-145.067 512-145.067s512 72.977 512 145.067c0 64.188-125.508 123.785-305.203 144.947zM508.979 25.481l261.82 378.146c98.202 130.918 84.002 346.112-30.396 460.493-61.815 61.833-144.009 95.881-231.424 95.881s-169.609-34.048-231.424-95.863c-114.398-114.381-128.597-329.574-30.788-459.981l262.212-378.675zM512 755.2c65.877 0 119.467-53.606 119.467-119.467s-53.589-119.467-119.467-119.467-119.467 53.606-119.467 119.467 53.589 119.467 119.467 119.467z" />
<glyph unicode="&#xe943;" glyph-name="delete" d="M846.89 839.425h-136.723v88.846c0 17.883-14.425 31.729-32.307 31.729-1.735 0-2.892-0.579-3.457-1.157-0.579 0.578-1.736 1.157-2.314 1.157h-325.95c-17.882 0-31.728-13.846-31.728-31.729v-88.847h-137.301c-39.236 0-69.808-30.572-69.808-69.808v-114.225h60.576v-650.162c0-39.237 29.994-69.23 69.23-69.23h549.785c39.236 0 69.806 29.993 69.806 69.23v650.162h59.998v114.225c0 39.236-30.584 69.809-69.808 69.809zM377.868 896.543h268.265v-57.118h-268.265v57.118zM792.665 5.227c0-4.048-1.735-5.77-5.772-5.77h-549.785c-4.036 0-5.772 1.723-5.772 5.77v650.165h561.328v-650.165zM852.663 718.849h-681.326v50.768c0 4.038 1.735 6.351 5.772 6.351h669.782c4.038 0 5.773-2.313 5.773-6.351v-50.768zM628.249 580.968h64.035v-524.973h-64.035v524.973zM480.561 580.968h64.035v-524.973h-64.035v524.973zM332.871 580.968h64.035v-524.973h-64.035v524.973z" />
<glyph unicode="&#xe944;" glyph-name="repairing-service" d="M1020.776 504.846c-1.616 14.392-18.405 25.22-32.921 25.22-46.915 0-88.551 27.536-106.012 70.155-17.824 43.642-6.324 94.529 28.63 126.596 11.009 10.066 12.351 26.92 3.122 38.62-24.020 30.494-51.308 58.043-81.111 81.917-11.66 9.353-28.794 8.051-38.913-3.149-30.516-33.798-85.336-46.357-127.698-28.683-44.067 18.542-71.882 63.211-69.15 111.158 0.899 15.070-10.119 28.165-25.136 29.914-38.248 4.428-76.833 4.557-115.192 0.301-14.826-1.639-25.835-14.423-25.344-29.303 1.661-47.477-26.469-91.359-70.111-109.236-41.853-17.098-96.292-4.632-126.746 28.869-10.066 11.036-26.898 12.391-38.638 3.237-30.68-24.077-58.584-51.644-82.825-81.891-9.446-11.757-8.051-28.798 3.051-38.899 35.644-32.279 47.136-83.604 28.63-127.756-17.669-42.092-61.374-69.208-111.402-69.208-16.235 0.523-27.788-10.385-29.582-25.149-4.499-38.452-4.548-77.653-0.217-116.419 1.616-14.454 18.901-25.189 33.576-25.189 44.594 1.134 87.382-26.455 105.357-70.151 17.886-43.642 6.373-94.507-28.639-126.618-10.952-10.066-12.351-26.881-3.104-38.567 23.776-30.304 51.091-57.871 80.983-81.948 11.735-9.45 28.803-8.126 38.975 3.087 30.636 33.878 85.447 46.414 127.636 28.705 44.196-18.493 71.997-63.158 69.283-111.118-0.89-15.070 10.154-28.205 25.118-29.914 19.574-2.29 39.249-3.423 58.987-3.423 18.732 0 37.469 1.023 56.206 3.109 14.844 1.639 25.835 14.437 25.335 29.321-1.714 47.455 26.478 91.341 70.067 109.183 42.132 17.209 96.327 4.614 126.799-28.838 10.119-11.014 26.85-12.351 38.638-3.233 30.627 24.015 58.477 51.569 82.825 81.895 9.455 11.735 8.113 28.798-3.051 38.917-35.636 32.257-47.189 83.604-28.683 127.712 17.395 41.525 59.474 69.407 104.732 69.407l6.333-0.168c14.694-1.191 28.196 10.123 29.972 25.114 4.521 38.488 4.57 77.644 0.221 116.424zM511.998 152.829c-163.024 0-295.173 132.149-295.173 295.168s132.153 295.168 295.173 295.168 295.173-132.149 295.173-295.168c0-55.333-15.256-107.088-41.751-151.346l-129.248 129.253c9.357 22.062 14.299 45.98 14.295 70.665 0 48.336-18.825 93.777-53.008 127.951-34.174 34.174-79.614 52.995-127.942 52.995-16.128 0-32.181-2.143-47.712-6.373-6.802-1.856-12.364-7.462-14.175-14.277-1.851-6.97 0.235-14.113 5.682-19.565 0 0 63.809-64.301 85.159-85.646 2.236-2.236 2.232-7.573 1.918-9.495l-0.199-1.404c-2.152-23.471-6.302-51.644-9.725-62.472-0.461-0.456-0.895-0.841-1.364-1.311-0.492-0.492-0.943-0.965-1.417-1.453-10.969-3.521-39.577-7.719-63.42-9.853l0.004 0.128-1.072-0.27c-0.19-0.022-0.545-0.049-1.014-0.049-2.577 0-6.368 0.722-9.813 4.163-22.222 22.222-83.529 83.091-83.529 83.091-5.5 5.482-11.142 6.634-14.902 6.634-8.764 0-16.611-6.333-19.082-15.415-16.877-62.454 1.014-129.634 46.702-175.326 34.183-34.179 79.628-52.999 127.964-52.999 24.684 0 48.602 4.938 70.66 14.295l130.652-130.652c-45.87-29.352-100.339-46.437-158.835-46.437z" />
<glyph unicode="&#xe945;" glyph-name="quotes" d="M448.634 807.738c11.67 0 21.119 9.459 21.119 21.119 0 11.67-9.459 21.119-21.119 21.119-244.858-0.274-443.28-198.707-443.564-443.564v-126.733c-0.365-128.689 103.667-233.32 232.347-233.685 128.689-0.365 233.32 103.657 233.685 232.347s-103.657 233.32-232.347 233.685c-75.989 0.213-147.314-36.631-191.103-98.73 3.914 218.761 182.191 394.139 400.982 394.443zM786.594 512.025c-75.563-0.061-146.361-36.894-189.764-98.72 3.903 218.751 182.201 394.128 400.972 394.433 11.659 0 21.129 9.459 21.129 21.119s-9.469 21.119-21.129 21.119c-244.848-0.284-443.291-198.707-443.564-443.564v-126.733c0-128.314 104.042-232.336 232.357-232.336s232.336 104.022 232.336 232.336c0 128.335-104.022 232.347-232.336 232.347z" />
<glyph unicode="&#xe946;" glyph-name="graduate" d="M1024 305.105c0 15.277-8.992 28.041-21.788 34.358v236.992c2.901 1.096 4.706 3.835 4.673 6.897 0 3.062-1.998 5.769-4.802 6.768l-488.971 172.466c-6.253 2.224-13.086 2.224-19.371 0l-488.907-172.498c-2.869-0.999-4.802-3.707-4.835-6.768s1.805-5.802 4.641-6.897l488.23-190.032c6.801-2.611 14.31-2.611 21.111 0l454.517 177.011v-223.906c-12.763-6.285-21.756-19.145-21.756-34.326 0-15.857 9.669-29.62 23.496-35.518-13.827-27.299-23.496-83.316-23.496-99.303 0-21.304 17.308-38.58 38.612-38.58 21.272 0 38.58 17.276 38.58 38.58 0 15.986-9.701 72.003-23.496 99.303 13.859 5.834 23.561 19.596 23.561 35.454zM157.543 480.73c0.032-54.663 0.064-118.996 0.064-129.213 0-101.784 153.192-184.649 345.835-189.839 192.61 5.189 345.803 87.957 345.803 189.839 0 10.153 0 74.517 0.064 129.213l-335.392-130.566c-6.801-2.643-14.31-2.643-21.111 0l-335.263 130.566z" />
<glyph unicode="&#xe948;" glyph-name="like" d="M1022.306 640.139c-14.947 164.519-131.395 283.881-277.126 283.881-97.089 0-185.985-52.247-236.006-135.983-49.568 84.82-134.821 136.003-230.354 136.003-145.712 0-262.179-119.362-277.106-283.881-1.182-7.267-6.026-45.512 8.705-107.881 21.23-89.96 70.266-171.786 141.773-236.577l356.747-323.741 362.871 323.721c71.507 64.811 120.544 146.618 141.773 236.597 14.731 62.349 9.886 100.594 8.724 107.861zM975.239 541.298c-19.378-82.161-64.299-157.016-129.78-216.332l-336.285-300.030-330.515 299.951c-65.599 59.435-110.5 134.27-129.898 216.431-13.943 59.021-8.212 92.362-8.192 92.579l0.295 1.989c12.801 144.136 112.863 248.768 237.956 248.768 92.303 0 173.558-56.717 212.118-147.996l18.138-42.991 18.138 42.991c37.949 89.881 123.498 147.977 217.987 147.977 125.073 0 225.155-104.631 238.212-250.638 0.039-0.315 5.77-33.676-8.173-92.697z" />
<glyph unicode="&#xe949;" glyph-name="like-fill" d="M508.928 752.62c41.329 97.956 135.741 166.4 245.555 166.4 147.927 0 254.464-126.546 267.858-277.361 0 0 7.229-37.437-8.684-104.837-21.668-91.791-72.602-173.343-141.271-235.581l-363.459-324.28-357.335 324.301c-68.669 62.218-119.603 143.79-141.271 235.581-15.913 67.4-8.684 104.837-8.684 104.837 13.394 150.815 119.931 277.361 267.858 277.361 109.834 0 198.103-68.465 239.432-166.42z" />
<glyph unicode="&#xe951;" glyph-name="check" d="M512.001 960c-282.77 0-512.001-229.229-512.001-512.001 0-282.765 229.231-512.001 512.001-512.001s512.001 229.236 512.001 512.001c-0.002 282.772-229.234 512.001-512.001 512.001zM410.965 215.765l-217.146 217.146 30.167 30.167 186.979-186.981 389.040 389.043 30.167-30.167-419.207-419.207z" />
<glyph unicode="&#xe957;" glyph-name="back" d="M780.194 935.63l-24.37 24.37-512.017-512 512.017-512 24.37 24.37-487.63 487.63z" />
<glyph unicode="&#xe958;" glyph-name="down-arrow" d="M968.795 705.405l-458.682-454.762-454.73 458.682c-12.586 12.716-33.11 12.781-45.81 0.194s-12.781-33.11-0.194-45.794l472.904-477.019c5.913-5.961 13.526-9.12 21.253-9.541 2.252-0.13 4.503 0.016 6.722 0.34 0.875-0.13 1.717-0.34 2.592-0.356 8.812-0.47 17.802 2.624 24.541 9.33l477.003 472.937c12.716 12.586 12.797 33.094 0.194 45.81s-33.11 12.781-45.794 0.178z" />
<glyph unicode="&#xe95b;" glyph-name="right-arrow-small" d="M243.806-39.631l24.369-24.369 512.018 512-512.018 512-24.369-24.369 487.631-487.631z" />
<glyph unicode="&#xe95e;" glyph-name="up-arrow" d="M513.92 718.397c-9.752 1.442-20.038-1.458-27.586-8.942l-476.744-473.164c-12.716-12.57-12.781-33.11-0.178-45.794 5.896-5.945 13.51-9.12 21.253-9.541 8.828-0.454 17.786 2.657 24.541 9.379l458.423 454.94 454.989-458.439c5.896-5.945 13.526-9.12 21.253-9.541 8.812-0.47 17.786 2.657 24.557 9.363 12.7 12.586 12.781 33.126 0.178 45.794l-473.164 476.792c-7.5 7.549-17.754 10.545-27.522 9.152z" />
<glyph unicode="&#xe962;" glyph-name="left-arrow-long" d="M334.018 797.137c14.436 14.436 37.164 14.436 51.6 0 13.949-13.949 13.949-37.164 0-51.080l-261.641-261.641h863.38c20.126 0 36.643-15.997 36.643-36.123s-16.517-36.643-36.643-36.643h-863.38l261.641-261.153c13.949-14.436 13.949-37.684 0-51.6-14.436-14.436-37.164-14.436-51.6 0l-323.581 323.581c-13.949 13.949-13.949 37.164 0 51.080l323.581 323.581z" />
<glyph unicode="&#xea08;" glyph-name="notification" d="M512 864c-111.118 0-215.584-43.272-294.156-121.844s-121.844-183.038-121.844-294.156c0-111.118 43.272-215.584 121.844-294.156s183.038-121.844 294.156-121.844c111.118 0 215.584 43.272 294.156 121.844s121.844 183.038 121.844 294.156c0 111.118-43.272 215.584-121.844 294.156s-183.038 121.844-294.156 121.844zM512 960v0c282.77 0 512-229.23 512-512s-229.23-512-512-512c-282.77 0-512 229.23-512 512s229.23 512 512 512zM448 256h128v-128h-128zM448 768h128v-384h-128z" />
<glyph unicode="&#xea88;" glyph-name="google" d="M522.2 521.2v-175.6h290.4c-11.8-75.4-87.8-220.8-290.4-220.8-174.8 0-317.4 144.8-317.4 323.2s142.6 323.2 317.4 323.2c99.4 0 166-42.4 204-79l139 133.8c-89.2 83.6-204.8 134-343 134-283 0-512-229-512-512s229-512 512-512c295.4 0 491.6 207.8 491.6 500.2 0 33.6-3.6 59.2-8 84.8l-483.6 0.2z" />
<glyph unicode="&#xea90;" glyph-name="facebook" d="M608 768h160v192h-160c-123.514 0-224-100.486-224-224v-96h-128v-192h128v-512h192v512h160l32 192h-192v96c0 17.346 14.654 32 32 32z" />
</font>
</defs>
</svg>
